The Naked Island / Hadaka no shima (1960) [Criterion Collection]

The Naked Island / Hadaka no shima (1960) [Criterion Collection]

The Naked Island / Hadaka no shima (1960) [Criterion Collection, Spine #811]
DVD Video | NTSC 16:9 | 720x480 | 1hr 36mn | 6.58 Gb
DVDRip | MKV | AVC 720x368, ~ 1.4 Mbps | 1hr 36mn | 1.34 GB
Japanese (日本語): AC3, 1 ch, 384 kbps \ AC3, 1 ch, 192 kbps | Subtitles: English
Genre: Drama
IMDB Rating: 8.3/10 (4.338 votes)


Director: Kaneto Shindô
Writers: Kaneto Shindô
Stars: Nobuko Otowa, Taiji Tonoyama, Shinji Tanaka

Director Kaneto Shindo’s documentary-like, dialogue-free portrayal of daily struggle is a work of stunning visual beauty and invention. The international breakthrough for one of Japan’s most innovative filmmakers—who went on to make other unique masterworks such as Onibaba and Kuroneko—The Naked Island follows a family whose home is on a tiny, remote island in the Japanese archipelago. They must row a great distance to another shore, collect water from a well in buckets, and row back to their island—a nearly backbreaking task essential for the survival of these people and their land. Featuring a phenomenal modernist score by Hikaru Hayashi, this is a truly hypnotic experience, with a rhythm unlike that of any other film.

Extras:
- Video introduction by director Kaneto Shindo, recorded for a 2011 retrospective of his work
- Audio commentary recorded in 2000, featuring Shindo and composer Hikaru Hayashi
- New appreciation of the film by actor Benicio Del Toro
- New interview with film scholar Akira Mizuta Lippit
- Trailer




Title: TheNakedIsland.1960.Cr.D9
Size: 6.58 Gb ( 6 898 722,00 KBytes ) - DVD-9
Enabled regions: 1, 2, 3, 4, 5, 6, 7, 8

VTS_01 :
Play Length: 01:36:31
Video: NTSC 16:9 (720x480) VBR, Auto Letterboxed
Audio:
Japanese (Dolby AC3, 1 ch)
Japanese (Dolby AC3, 1 ch)
Subtitles:
English
English

VTS_02 :
Play Length: 00:07:42
Video: NTSC 16:9 (720x480) VBR, Auto Letterboxed
Audio:
English (Dolby AC3, 1 ch)

VTS_03 :
Play Length: 00:17:12
Video: NTSC 16:9 (720x480) VBR, Auto Letterboxed
Audio:
English (Dolby AC3, 1 ch)

VTS_04 :
Play Length: 00:07:30
Video: NTSC 16:9 (720x480) VBR, Auto Letterboxed
Audio:
Japanese (Dolby AC3, 1 ch)
Subtitles:
English

VTS_05 :
Play Length: 00:02:11
Video: NTSC 16:9 (720x480) VBR, Auto Letterboxed
Audio:
Japanese (Dolby AC3, 1 ch)
Subtitles:
English

VTS_06 :
Play Length: 00:00:20
Video: NTSC 4:3 (720x480) VBR
Audio:
English (Dolby AC3, 1 ch)

VTS_07 :
Play Length: 00:00:20
Video: NTSC 4:3 (720x480) VBR
Audio:
English (Dolby AC3, 1 ch)





General
Unique ID : 204687771196357573013506753964102682836 (0x99FD6E4793FD0816A4302426541088D4)
Complete name : F:\TheNakedIsland.1960.Cr.Dr\TheNakedIsland.1960.Cr.Dr.mkv
Format : Matroska
Format version : Version 4 / Version 2
File size : 1.34 GiB
Duration : 1 h 36 min
Overall bit rate : 1 983 kb/s
Movie name : Release RSU75
Encoded date : UTC 2019-08-05 16:44:16
Writing application : mkvmerge v6.6.0 ('The Edge Of The In Between') built on Dec 1 2013 17:55:00
Writing library : libebml v1.3.0 + libmatroska v1.4.1

Video
ID : 1
Format : AVC
Format/Info : Advanced Video Codec
Format profile : High@L4.1
Format settings : CABAC / 4 Ref Frames
Format settings, CABAC : Yes
Format settings, ReFrames : 4 frames
Codec ID : V_MPEG4/ISO/AVC
Duration : 1 h 36 min
Bit rate : 1 400 kb/s
Width : 720 pixels
Height : 368 pixels
Display aspect ratio : 2.35:1
Frame rate mode : Constant
Frame rate : 23.976 (23976/1000) FPS
Color space : YUV
Chroma subsampling : 4:2:0
Bit depth : 8 bits
Scan type : Progressive
Bits/(Pixel*Frame) : 0.220
Stream size : 945 MiB (69%)
Writing library : x264 core 148 r2643 5c65704
Encoding settings : cabac=1 / ref=4 / deblock=1:0:0 / analyse=0x3:0x113 / me=umh / subme=8 / psy=1 / psy_rd=1.00:0.00 / mixed_ref=1 / me_range=24 / chroma_me=1 / trellis=1 / 8x8dct=1 / cqm=0 / deadzone=21,11 / fast_pskip=1 / chroma_qp_offset=-2 / threads=3 / lookahead_threads=1 / sliced_threads=0 / nr=0 / decimate=1 / interlaced=0 / bluray_compat=0 / constrained_intra=0 / bframes=3 / b_pyramid=0 / b_adapt=2 / b_bias=0 / direct=3 / weightb=1 / open_gop=0 / weightp=2 / keyint=250 / keyint_min=25 / scenecut=40 / intra_refresh=0 / rc_lookahead=40 / rc=abr / mbtree=1 / bitrate=1400 / ratetol=1.0 / qcomp=0.60 / qpmin=10 / qpmax=51 / qpstep=4 / ip_ratio=1.41 / aq=1:1.00
Language : English
Default : Yes
Forced : No

Audio #1
ID : 2
Format : AC-3
Format/Info : Audio Coding 3
Commercial name : Dolby Digital
Codec ID : A_AC3
Duration : 1 h 36 min
Bit rate mode : Constant
Bit rate : 384 kb/s
Channel(s) : 1 channel
Channel layout : C
Sampling rate : 48.0 kHz
Frame rate : 31.250 FPS (1536 SPF)
Bit depth : 16 bits
Compression mode : Lossy
Stream size : 265 MiB (19%)
Language : Japanese
Service kind : Complete Main
Default : Yes
Forced : No

Audio #2
ID : 3
Format : AC-3
Format/Info : Audio Coding 3
Commercial name : Dolby Digital
Codec ID : A_AC3
Duration : 1 h 36 min
Bit rate mode : Constant
Bit rate : 192 kb/s
Channel(s) : 1 channel
Channel layout : C
Sampling rate : 48.0 kHz
Frame rate : 31.250 FPS (1536 SPF)
Bit depth : 16 bits
Compression mode : Lossy
Stream size : 133 MiB (10%)
Title : Commentary
Language : Japanese
Service kind : Complete Main
Default : No
Forced : No

Text #1
ID : 4
Format : VobSub
Muxing mode : zlib
Codec ID : S_VOBSUB
Codec ID/Info : Picture based subtitle format used on DVDs
Language : English
Default : Yes
Forced : No

Text #2
ID : 5
Format : VobSub
Muxing mode : zlib
Codec ID : S_VOBSUB
Codec ID/Info : Picture based subtitle format used on DVDs
Language : English
Default : No
Forced : No

Menu
00:00:00.000 : en:Chapter 01
00:03:01.014 : en:Chapter 02
00:09:30.736 : en:Chapter 03
00:15:37.970 : en:Chapter 04
00:32:07.759 : en:Chapter 05
00:38:17.628 : en:Chapter 06
00:52:01.284 : en:Chapter 07
00:59:52.255 : en:Chapter 08
01:07:01.684 : en:Chapter 09
01:15:29.391 : en:Chapter 10
01:26:57.879 : en:Chapter 11
01:36:35.289 : en:Chapter 12




Screenshots DVD (click to enlarge to original size):

The Naked Island / Hadaka no shima (1960) [Criterion Collection]

The Naked Island / Hadaka no shima (1960) [Criterion Collection]

The Naked Island / Hadaka no shima (1960) [Criterion Collection]

The Naked Island / Hadaka no shima (1960) [Criterion Collection]

The Naked Island / Hadaka no shima (1960) [Criterion Collection]

The Naked Island / Hadaka no shima (1960) [Criterion Collection]

The Naked Island / Hadaka no shima (1960) [Criterion Collection]



Screenshots DVDRip (click to enlarge to original size):

The Naked Island / Hadaka no shima (1960) [Criterion Collection]



All thanks to the original uploader


–––––––––––––––––––––––––––––––––––––––-
>>> "Criterion Collection" <<< OR >>> "Criterion Collection, DVD Video" <<< OR
>>> "DVDRip" <<< OR >>> "Japanese (日本語)" <<<
–––––––––––––––––––––––––––––––––––––––-
>>> Visit Blog RSU75 Here <<<
–––––––––––––––––––––––––––––––––––––––-