The Naked City (1948) [Criterion Collection]

The Naked City (1948) [Criterion Collection]

The Naked City (1948) [Criterion Collection, Spine #380]
BDRip 1080p | MKV | AVC 1480x1080, ~ 3.8 Mbps | 1hr 38mn | 3.01 GB
English: AC3, 1 ch, 448 kbps; English (Commentary): AC3, 1 ch, 192 kbps
BDRip 720p | MKV | AVC 988x720, ~ 2.6 Mbps | 1hr 38mn | 2.07 GB
English: AC3, 1 ch, 256 kbps; English (Commentary): AC3, 1 ch, 192 kbps
Subtitles: English
Genre: Crime, Drama, Film-Noir



Director: Jules Dassin
Writer: Albert Maltz (screenplay), Malvin Wald (screenplay)
Stars: Barry Fitzgerald, Howard Duff, Dorothy Hart

“There are eight million stories in the Naked City,” as the narrator immortally states at the close of this breathtakingly vivid film—and this is one of them. Master noir craftsman Jules Dassin and newspaperman-cum-producer Mark Hellinger’s dazzling police procedural, The Naked City, was shot entirely on location in New York. Influenced as much by Italian neorealism as it is by American crime fiction, this double Academy Award winner remains a benchmark for naturalism in noir, living and breathing in the promises and perils of the Big Apple, from its lowest depths to its highest skyscrapers.

Extras:
- Audio commentary from 1996 featuring screenwriter Malvin Wald




General
Unique ID : 180654474083052917516394175450569845255 (0x87E8C93F5170C65FA4123EEA23152A07)
Complete name : F:\TheNakedCity.1948.Cr.1p\TheNakedCity.1948.Cr.1p.mkv
Format : Matroska
Format version : Version 4
File size : 3.01 GiB
Duration : 1 h 38 min
Overall bit rate : 4 370 kb/s
Movie name : Release RSU75
Encoded date : UTC 2020-09-13 17:07:25
Writing application : mkvmerge v6.6.0 ('The Edge Of The In Between') built on Dec 1 2013 17:55:00
Writing library : libebml v1.3.0 + libmatroska v1.4.1

Video
ID : 1
Format : AVC
Format/Info : Advanced Video Codec
Format profile : High@L4.1
Format settings : CABAC / 4 Ref Frames
Format settings, CABAC : Yes
Format settings, Reference fra : 4 frames
Codec ID : V_MPEG4/ISO/AVC
Duration : 1 h 38 min
Bit rate : 3 800 kb/s
Width : 1 480 pixels
Height : 1 080 pixels
Display aspect ratio : 1.370
Frame rate mode : Constant
Frame rate : 23.976 (23976/1000) FPS
Color space : YUV
Chroma subsampling : 4:2:0
Bit depth : 8 bits
Scan type : Progressive
Bits/(Pixel*Frame) : 0.099
Stream size : 2.51 GiB (83%)
Writing library : x264 core 148 r2643 5c65704
Encoding settings : cabac=1 / ref=4 / deblock=1:0:0 / analyse=0x3:0x113 / me=umh / subme=8 / psy=1 / psy_rd=1.00:0.00 / mixed_ref=1 / me_range=24 / chroma_me=1 / trellis=1 / 8x8dct=1 / cqm=0 / deadzone=21,11 / fast_pskip=1 / chroma_qp_offset=-2 / threads=3 / lookahead_threads=1 / sliced_threads=0 / nr=0 / decimate=1 / interlaced=0 / bluray_compat=0 / constrained_intra=0 / bframes=3 / b_pyramid=0 / b_adapt=2 / b_bias=0 / direct=3 / weightb=1 / open_gop=0 / weightp=2 / keyint=250 / keyint_min=25 / scenecut=40 / intra_refresh=0 / rc_lookahead=40 / rc=abr / mbtree=1 / bitrate=3800 / ratetol=1.0 / qcomp=0.60 / qpmin=10 / qpmax=51 / qpstep=4 / ip_ratio=1.41 / aq=1:1.00
Language : English
Default : Yes
Forced : No
Duration_Source : General_Duration

Audio #1
ID : 2
Format : AC-3
Format/Info : Audio Coding 3
Commercial name : Dolby Digital
Codec ID : A_AC3
Duration : 1 h 38 min
Bit rate mode : Constant
Bit rate : 448 kb/s
Channel(s) : 1 channel
Channel layout : C
Sampling rate : 48.0 kHz
Frame rate : 31.250 FPS (1536 SPF)
Compression mode : Lossy
Stream size : 316 MiB (10%)
Title : Mono
Language : English
Service kind : Complete Main
Default : Yes
Forced : No
Duration_Source : General_Duration

Audio #2
ID : 3
Format : AC-3
Format/Info : Audio Coding 3
Commercial name : Dolby Digital
Codec ID : A_AC3
Duration : 1 h 38 min
Bit rate mode : Constant
Bit rate : 192 kb/s
Channel(s) : 1 channel
Channel layout : C
Sampling rate : 48.0 kHz
Frame rate : 31.250 FPS (1536 SPF)
Compression mode : Lossy
Stream size : 136 MiB (4%)
Title : Mono
Language : English
Service kind : Complete Main
Default : No
Forced : No
Duration_Source : General_Duration

Text
ID : 4
Format : PGS
Muxing mode : zlib
Codec ID : S_HDMV/PGS
Codec ID/Info : Picture based subtitle format used on BDs/HD-DVDs
Language : English
Default : Yes
Forced : No

Menu
00:00:00.000 : en:Chapter 01
00:03:20.408 : en:Chapter 02
00:06:33.768 : en:Chapter 03
00:08:57.161 : en:Chapter 04
00:16:24.608 : en:Chapter 05
00:21:02.844 : en:Chapter 06
00:25:21.937 : en:Chapter 07
00:31:34.309 : en:Chapter 08
00:36:06.581 : en:Chapter 09
00:39:34.830 : en:Chapter 10
00:44:19.573 : en:Chapter 11
00:48:48.550 : en:Chapter 12
00:51:09.900 : en:Chapter 13
00:54:49.035 : en:Chapter 14
01:02:40.590 : en:Chapter 15
01:07:07.398 : en:Chapter 16
01:11:10.307 : en:Chapter 17
01:14:08.735 : en:Chapter 18
01:15:48.168 : en:Chapter 19
01:21:46.651 : en:Chapter 20
01:25:00.929 : en:Chapter 21
01:29:59.936 : en:Chapter 22
01:35:16.085 : en:Chapter 23





General
Unique ID : 225581537190406575698858603287123168373 (0xA9B56C7A11161AD598E37D9D31FD8C75)
Complete name : F:\TheNakedCity.1948.Cr.7p\TheNakedCity.1948.Cr.7p.mkv
Format : Matroska
Format version : Version 4
File size : 2.07 GiB
Duration : 1 h 38 min
Overall bit rate : 3 006 kb/s
Movie name : Release RSU75
Encoded date : UTC 2020-09-13 16:26:09
Writing application : mkvmerge v6.6.0 ('The Edge Of The In Between') built on Dec 1 2013 17:55:00
Writing library : libebml v1.3.0 + libmatroska v1.4.1

Video
ID : 1
Format : AVC
Format/Info : Advanced Video Codec
Format profile : High@L4.1
Format settings : CABAC / 4 Ref Frames
Format settings, CABAC : Yes
Format settings, Reference fra : 4 frames
Codec ID : V_MPEG4/ISO/AVC
Duration : 1 h 38 min
Bit rate : 2 600 kb/s
Width : 988 pixels
Height : 720 pixels
Display aspect ratio : 1.371
Original display aspect ratio : 1.370
Frame rate mode : Constant
Frame rate : 23.976 (23976/1000) FPS
Color space : YUV
Chroma subsampling : 4:2:0
Bit depth : 8 bits
Scan type : Progressive
Bits/(Pixel*Frame) : 0.152
Stream size : 1.72 GiB (83%)
Writing library : x264 core 148 r2643 5c65704
Encoding settings : cabac=1 / ref=4 / deblock=1:0:0 / analyse=0x3:0x113 / me=umh / subme=8 / psy=1 / psy_rd=1.00:0.00 / mixed_ref=1 / me_range=24 / chroma_me=1 / trellis=1 / 8x8dct=1 / cqm=0 / deadzone=21,11 / fast_pskip=1 / chroma_qp_offset=-2 / threads=3 / lookahead_threads=1 / sliced_threads=0 / nr=0 / decimate=1 / interlaced=0 / bluray_compat=0 / constrained_intra=0 / bframes=3 / b_pyramid=0 / b_adapt=2 / b_bias=0 / direct=3 / weightb=1 / open_gop=0 / weightp=2 / keyint=250 / keyint_min=25 / scenecut=40 / intra_refresh=0 / rc_lookahead=40 / rc=abr / mbtree=1 / bitrate=2600 / ratetol=1.0 / qcomp=0.60 / qpmin=10 / qpmax=51 / qpstep=4 / ip_ratio=1.41 / aq=1:1.00
Language : English
Default : Yes
Forced : No
Duration_Source : General_Duration

Audio #1
ID : 2
Format : AC-3
Format/Info : Audio Coding 3
Commercial name : Dolby Digital
Codec ID : A_AC3
Duration : 1 h 38 min
Bit rate mode : Constant
Bit rate : 256 kb/s
Channel(s) : 1 channel
Channel layout : C
Sampling rate : 48.0 kHz
Frame rate : 31.250 FPS (1536 SPF)
Compression mode : Lossy
Stream size : 181 MiB (9%)
Title : Mono
Language : English
Service kind : Complete Main
Default : Yes
Forced : No
Duration_Source : General_Duration

Audio #2
ID : 3
Format : AC-3
Format/Info : Audio Coding 3
Commercial name : Dolby Digital
Codec ID : A_AC3
Duration : 1 h 38 min
Bit rate mode : Constant
Bit rate : 192 kb/s
Channel(s) : 1 channel
Channel layout : C
Sampling rate : 48.0 kHz
Frame rate : 31.250 FPS (1536 SPF)
Compression mode : Lossy
Stream size : 136 MiB (6%)
Title : Mono
Language : English
Service kind : Complete Main
Default : No
Forced : No
Duration_Source : General_Duration

Text
ID : 4
Format : PGS
Muxing mode : zlib
Codec ID : S_HDMV/PGS
Codec ID/Info : Picture based subtitle format used on BDs/HD-DVDs
Language : English
Default : Yes
Forced : No

Menu
00:00:00.000 : en:Chapter 01
00:03:20.408 : en:Chapter 02
00:06:33.768 : en:Chapter 03
00:08:57.161 : en:Chapter 04
00:16:24.608 : en:Chapter 05
00:21:02.844 : en:Chapter 06
00:25:21.937 : en:Chapter 07
00:31:34.309 : en:Chapter 08
00:36:06.581 : en:Chapter 09
00:39:34.830 : en:Chapter 10
00:44:19.573 : en:Chapter 11
00:48:48.550 : en:Chapter 12
00:51:09.900 : en:Chapter 13
00:54:49.035 : en:Chapter 14
01:02:40.590 : en:Chapter 15
01:07:07.398 : en:Chapter 16
01:11:10.307 : en:Chapter 17
01:14:08.735 : en:Chapter 18
01:15:48.168 : en:Chapter 19
01:21:46.651 : en:Chapter 20
01:25:00.929 : en:Chapter 21
01:29:59.936 : en:Chapter 22
01:35:16.085 : en:Chapter 23




Screenshots 1080p (click to enlarge to original size):

The Naked City (1948) [Criterion Collection]

The Naked City (1948) [Criterion Collection]

The Naked City (1948) [Criterion Collection]



Screenshots 720p (click to enlarge to original size):

The Naked City (1948) [Criterion Collection]





More in My Blog



If you like this release please visit my blog
In it you will find ALL the latest Criterion Collection releases