The Moon Over the Alley (1976) [British Film Institute]

The Moon Over the Alley (1976) [British Film Institute]

The Moon Over the Alley (1976) [British Film Institute]
BDRip | MKV | AVC, 1440x1080, ~ 3.7 Mbps | 1hr 47mn | 3.12 GB | English: AC3, 2 ch, 448 kbps
BDRip | MKV | AVC, 960x720, ~ 2.5 Mbps | 1hr 47mn | 2.08 MB | English: AC3, 2 ch, 256 kbps
Subtitles: English
Genre: Drama, Musical



Director: Joseph Despins
Writers: William Dumaresq
Stars: Sean Caffrey, Basil Clarke, Debbie Evans

Film Distributor: BFI (British Film Institute)

The Moon Over the Alley reunited Duffer writer/directors Joseph Despins and William Dumaresq, with this strange London-set musical, again scored by Galt MacDermont (Hair). The film explores the problems facing the multicultural residents in a Notting Hill boarding house of the early 1970s, destined for demolition. Dark and disturbing, yet also dreamlike and tender, this astonishing film defies all categorisation. This title is also available on DVD / Blu-ray in the BFI's Flipside collection.

Extras:
- None




General
Unique ID : 218604874600430149218998948851105191376 (0xA475C47435559C9F956FFAB1C730D5D0)
Complete name : F:\TheMoonOverTheAlley.1975.BFI.1p\TheMoonOverTheAlley.1975.BFI.1p.mkv
Format : Matroska
Format version : Version 4
File size : 3.12 GiB
Duration : 1 h 47 min
Overall bit rate : 4 146 kb/s
Movie name : Release RSU75
Encoded date : UTC 2020-07-24 04:25:11
Writing application : mkvmerge v6.6.0 ('The Edge Of The In Between') built on Dec 1 2013 17:55:00
Writing library : libebml v1.3.0 + libmatroska v1.4.1

Video
ID : 1
Format : AVC
Format/Info : Advanced Video Codec
Format profile : High@L4.1
Format settings : CABAC / 4 Ref Frames
Format settings, CABAC : Yes
Format settings, Reference fra : 4 frames
Codec ID : V_MPEG4/ISO/AVC
Duration : 1 h 47 min
Bit rate : 3 700 kb/s
Width : 1 440 pixels
Height : 1 080 pixels
Display aspect ratio : 4:3
Frame rate mode : Constant
Frame rate : 23.976 (23976/1000) FPS
Color space : YUV
Chroma subsampling : 4:2:0
Bit depth : 8 bits
Scan type : Progressive
Bits/(Pixel*Frame) : 0.099
Stream size : 2.72 GiB (87%)
Writing library : x264 core 148 r2643 5c65704
Encoding settings : cabac=1 / ref=4 / deblock=1:0:0 / analyse=0x3:0x113 / me=umh / subme=8 / psy=1 / psy_rd=1.00:0.00 / mixed_ref=1 / me_range=24 / chroma_me=1 / trellis=1 / 8x8dct=1 / cqm=0 / deadzone=21,11 / fast_pskip=1 / chroma_qp_offset=-2 / threads=3 / lookahead_threads=1 / sliced_threads=0 / nr=0 / decimate=1 / interlaced=0 / bluray_compat=0 / constrained_intra=0 / bframes=3 / b_pyramid=0 / b_adapt=2 / b_bias=0 / direct=3 / weightb=1 / open_gop=0 / weightp=2 / keyint=250 / keyint_min=25 / scenecut=40 / intra_refresh=0 / rc_lookahead=40 / rc=abr / mbtree=1 / bitrate=3700 / ratetol=1.0 / qcomp=0.60 / qpmin=10 / qpmax=51 / qpstep=4 / ip_ratio=1.41 / aq=1:1.00
Language : English
Default : Yes
Forced : No
Duration_Source : General_Duration

Audio
ID : 2
Format : AC-3
Format/Info : Audio Coding 3
Commercial name : Dolby Digital
Codec ID : A_AC3
Duration : 1 h 47 min
Bit rate mode : Constant
Bit rate : 448 kb/s
Channel(s) : 2 channels
Channel layout : L R
Sampling rate : 44.1 kHz
Frame rate : 28.711 FPS (1536 SPF)
Compression mode : Lossy
Stream size : 345 MiB (11%)
Title : Stereo
Language : English
Service kind : Complete Main
Default : Yes
Forced : No
Duration_Source : General_Duration

Text
ID : 3
Format : PGS
Muxing mode : zlib
Codec ID : S_HDMV/PGS
Codec ID/Info : Picture based subtitle format used on BDs/HD-DVDs
Language : English
Default : Yes
Forced : No

Menu
00:00:00.000 : en:Chapter 01
00:08:45.691 : en:Chapter 02
00:16:47.381 : en:Chapter 03
00:30:42.674 : en:Chapter 04
00:36:56.631 : en:Chapter 05
00:48:27.571 : en:Chapter 06
00:53:23.783 : en:Chapter 07
01:01:40.238 : en:Chapter 08
01:12:59.041 : en:Chapter 09
01:24:19.220 : en:Chapter 10
01:31:07.462 : en:Chapter 11
01:40:53.047 : en:Chapter 12






General
Unique ID : 228730567066661242871086904704382706120 (0xAC13E7A301BA39B0A5D309857F86A1C8)
Complete name : F:\TheMoonOverTheAlley.1975.BFI.7p\TheMoonOverTheAlley.1975.BFI.7p.mkv
Format : Matroska
Format version : Version 4
File size : 2.08 GiB
Duration : 1 h 47 min
Overall bit rate : 2 758 kb/s
Movie name : Release RSU75
Encoded date : UTC 2020-07-24 04:14:11
Writing application : mkvmerge v6.6.0 ('The Edge Of The In Between') built on Dec 1 2013 17:55:00
Writing library : libebml v1.3.0 + libmatroska v1.4.1

Video
ID : 1
Format : AVC
Format/Info : Advanced Video Codec
Format profile : High@L4.1
Format settings : CABAC / 4 Ref Frames
Format settings, CABAC : Yes
Format settings, Reference fra : 4 frames
Codec ID : V_MPEG4/ISO/AVC
Duration : 1 h 47 min
Bit rate : 2 500 kb/s
Width : 960 pixels
Height : 720 pixels
Display aspect ratio : 4:3
Frame rate mode : Constant
Frame rate : 23.976 (23976/1000) FPS
Color space : YUV
Chroma subsampling : 4:2:0
Bit depth : 8 bits
Scan type : Progressive
Bits/(Pixel*Frame) : 0.151
Stream size : 1.84 GiB (89%)
Writing library : x264 core 148 r2643 5c65704
Encoding settings : cabac=1 / ref=4 / deblock=1:0:0 / analyse=0x3:0x113 / me=umh / subme=8 / psy=1 / psy_rd=1.00:0.00 / mixed_ref=1 / me_range=24 / chroma_me=1 / trellis=1 / 8x8dct=1 / cqm=0 / deadzone=21,11 / fast_pskip=1 / chroma_qp_offset=-2 / threads=3 / lookahead_threads=1 / sliced_threads=0 / nr=0 / decimate=1 / interlaced=0 / bluray_compat=0 / constrained_intra=0 / bframes=3 / b_pyramid=0 / b_adapt=2 / b_bias=0 / direct=3 / weightb=1 / open_gop=0 / weightp=2 / keyint=250 / keyint_min=25 / scenecut=40 / intra_refresh=0 / rc_lookahead=40 / rc=abr / mbtree=1 / bitrate=2500 / ratetol=1.0 / qcomp=0.60 / qpmin=10 / qpmax=51 / qpstep=4 / ip_ratio=1.41 / aq=1:1.00
Language : English
Default : Yes
Forced : No
Duration_Source : General_Duration

Audio
ID : 2
Format : AC-3
Format/Info : Audio Coding 3
Commercial name : Dolby Digital
Codec ID : A_AC3
Duration : 1 h 47 min
Bit rate mode : Constant
Bit rate : 256 kb/s
Channel(s) : 2 channels
Channel layout : L R
Sampling rate : 44.1 kHz
Frame rate : 28.711 FPS (1536 SPF)
Compression mode : Lossy
Stream size : 197 MiB (9%)
Title : Stereo
Language : English
Service kind : Complete Main
Default : Yes
Forced : No
Duration_Source : General_Duration

Text
ID : 3
Format : PGS
Muxing mode : zlib
Codec ID : S_HDMV/PGS
Codec ID/Info : Picture based subtitle format used on BDs/HD-DVDs
Language : English
Default : Yes
Forced : No

Menu
00:00:00.000 : en:Chapter 01
00:08:45.691 : en:Chapter 02
00:16:47.381 : en:Chapter 03
00:30:42.674 : en:Chapter 04
00:36:56.631 : en:Chapter 05
00:48:27.571 : en:Chapter 06
00:53:23.783 : en:Chapter 07
01:01:40.238 : en:Chapter 08
01:12:59.041 : en:Chapter 09
01:24:19.220 : en:Chapter 10
01:31:07.462 : en:Chapter 11
01:40:53.047 : en:Chapter 12




Screenshots 1080p (click to enlarge to original size):

The Moon Over the Alley (1976) [British Film Institute]

The Moon Over the Alley (1976) [British Film Institute]

The Moon Over the Alley (1976) [British Film Institute]



Screenshots 720p (click to enlarge to original size):

The Moon Over the Alley (1976) [British Film Institute]





More in My Blog



If you like this release please visit my blog
In it you will find ALL the latest BFI releases