The Man Who Fell to Earth (1976) [Criterion Collection]

The Man Who Fell to Earth (1976) [Criterion Collection]

The Man Who Fell to Earth (1976) [Criterion Collection, Spine #304]
DVDRip | MKV | AVC 720x368, ~ 1.4 Mbps | 2hr 19mn | 1.74 GB
English: Dolby AC3, 2 ch, 192 kbps \ Dolby AC3, 2 ch, 192 kbps
Subtitles: English
Genre: Sci-Fi, Drama
IMDB Rating: 6.7/10 (21.552 votes)


Director: Nicolas Roeg
Writers: Paul Mayersberg (screenplay), Walter Tevis (from the novel by)
Stars: David Bowie, Rip Torn, Candy Clark

The Man Who Fell to Earth is a daring exploration of science fiction as an art form. The story of an alien on an elaborate rescue mission provides the launching pad for Nicolas Roeg’s visual tour de force, a formally adventurous examination of alienation in contemporary life. Rock legend David Bowie, in his acting debut, completely embodies the title role, while Candy Clark, Buck Henry, and Rip Torn turn in pitch-perfect supporting performances. The film’s hallucinatory vision was obscured in the American theatrical release, which deleted nearly twenty minutes of crucial scenes and details. The Criterion Collection is proud to present Roeg’s full uncut version, in this exclusive new director-approved high-­definition widescreen transfer.

Extras:
- Audio commentary by Roeg and actors David Bowie and Buck Henry




General
Unique ID : 205284179859673518268171989590641659849 (0x9A704B7F39FAA5CB88D0ACD844B2CFC9)
Complete name : F:\TheManWhoFellToEarth.1976.Cr.Dr\TheManWhoFellToEarth.1976.Cr.Dr.mkv
Format : Matroska
Format version : Version 4 / Version 2
File size : 1.74 GiB
Duration : 2 h 19 min
Overall bit rate : 1 793 kb/s
Movie name : Release RSU75
Encoded date : UTC 2019-07-25 12:27:44
Writing application : mkvmerge v6.6.0 ('The Edge Of The In Between') built on Dec 1 2013 17:55:00
Writing library : libebml v1.3.0 + libmatroska v1.4.1

Video
ID : 1
Format : AVC
Format/Info : Advanced Video Codec
Format profile : High@L4.1
Format settings : CABAC / 4 Ref Frames
Format settings, CABAC : Yes
Format settings, ReFrames : 4 frames
Codec ID : V_MPEG4/ISO/AVC
Duration : 2 h 19 min
Bit rate : 1 400 kb/s
Width : 720 pixels
Height : 368 pixels
Display aspect ratio : 2.35:1
Frame rate mode : Constant
Frame rate : 23.976 (23976/1000) FPS
Color space : YUV
Chroma subsampling : 4:2:0
Bit depth : 8 bits
Scan type : Progressive
Bits/(Pixel*Frame) : 0.220
Stream size : 1.33 GiB (77%)
Writing library : x264 core 148 r2643 5c65704
Encoding settings : cabac=1 / ref=4 / deblock=1:0:0 / analyse=0x3:0x113 / me=umh / subme=8 / psy=1 / psy_rd=1.00:0.00 / mixed_ref=1 / me_range=24 / chroma_me=1 / trellis=1 / 8x8dct=1 / cqm=0 / deadzone=21,11 / fast_pskip=1 / chroma_qp_offset=-2 / threads=3 / lookahead_threads=1 / sliced_threads=0 / nr=0 / decimate=1 / interlaced=0 / bluray_compat=0 / constrained_intra=0 / bframes=3 / b_pyramid=0 / b_adapt=2 / b_bias=0 / direct=3 / weightb=1 / open_gop=0 / weightp=2 / keyint=250 / keyint_min=25 / scenecut=40 / intra_refresh=0 / rc_lookahead=40 / rc=abr / mbtree=1 / bitrate=1400 / ratetol=1.0 / qcomp=0.60 / qpmin=10 / qpmax=51 / qpstep=4 / ip_ratio=1.41 / aq=1:1.00
Language : English
Default : Yes
Forced : No

Audio #1
ID : 2
Format : AC-3
Format/Info : Audio Coding 3
Commercial name : Dolby Digital
Codec ID : A_AC3
Duration : 2 h 19 min
Bit rate mode : Constant
Bit rate : 192 kb/s
Channel(s) : 2 channels
Channel layout : L R
Sampling rate : 48.0 kHz
Frame rate : 31.250 FPS (1536 SPF)
Bit depth : 16 bits
Compression mode : Lossy
Stream size : 191 MiB (11%)
Language : English
Service kind : Complete Main
Default : Yes
Forced : No

Audio #2
ID : 3
Format : AC-3
Format/Info : Audio Coding 3
Commercial name : Dolby Digital
Codec ID : A_AC3
Duration : 2 h 19 min
Bit rate mode : Constant
Bit rate : 192 kb/s
Channel(s) : 2 channels
Channel layout : L R
Sampling rate : 48.0 kHz
Frame rate : 31.250 FPS (1536 SPF)
Bit depth : 16 bits
Compression mode : Lossy
Stream size : 191 MiB (11%)
Title : Сommentary
Language : English
Service kind : Complete Main
Default : No
Forced : No

Text
ID : 4
Format : VobSub
Muxing mode : zlib
Codec ID : S_VOBSUB
Codec ID/Info : Picture based subtitle format used on DVDs
Language : English
Default : Yes
Forced : No

Menu
00:00:00.000 : en:Chapter 01
00:05:39.639 : en:Chapter 02
00:09:43.382 : en:Chapter 03
00:16:09.501 : en:Chapter 04
00:20:47.746 : en:Chapter 05
00:25:24.990 : en:Chapter 06
00:31:01.492 : en:Chapter 07
00:37:01.636 : en:Chapter 08
00:40:07.405 : en:Chapter 09
00:48:02.646 : en:Chapter 10
00:52:46.663 : en:Chapter 11
00:56:10.467 : en:Chapter 12
01:03:31.307 : en:Chapter 13
01:11:49.104 : en:Chapter 14
01:20:49.244 : en:Chapter 15
01:30:10.138 : en:Chapter 16
01:37:41.755 : en:Chapter 17
01:44:53.487 : en:Chapter 18
01:51:46.933 : en:Chapter 19
01:59:42.341 : en:Chapter 20
02:04:15.114 : en:Chapter 21
02:06:45.164 : en:Chapter 22
02:14:20.786 : en:Chapter 23
02:19:07.372 : en:Chapter 24



Screenshots DVDRip (click to enlarge to original size):

The Man Who Fell to Earth (1976) [Criterion Collection]




–––––––––––––––––––––––––––––––––––––––-
>>> "Criterion Collection" <<<OR >>> "DVDRip" <<<OR >>> "Sci-Fi" <<<
–––––––––––––––––––––––––––––––––––––––-
>>> Visit Blog RSU75 Here <<<
–––––––––––––––––––––––––––––––––––––––-