The Great Escape (1963) [Criterion Collection]

The Great Escape (1963) [Criterion Collection]

The Great Escape (1963) [Criterion Collection, Spine #1027]
BDRip 1080p | MKV | AVC, 1920x816, ~ 3.7 Mbps | 2hr 52mn | 6.28 GB | English: DTS, 6 ch, 1510 kbps
BDRip 720p | MKV | AVC, 1280x544, ~ 2.6 Mbps | 2hr 52mn | 3.68 GB | English: AC3, 6 ch, 448 kbps
Subtitles: English
Genre: Adventure, Drama, History



Director: John Sturges
Writers: Paul Brickhill (book), James Clavell (screenplay)
Stars: Steve McQueen, James Garner, Richard Attenborough

One of the most exciting adventure tales ever told, this action epic recounts the planning, execution, and aftermath of a daring true-life escape from a German prisoner-of-war camp during World War II, in which 250 men attempted to tunnel their way to freedom. In the role that cemented his superstar status, Steve McQueen plays the motorcycle-racing daredevil who sets out to foil the Nazis, alongside an all-star cast that includes Charles Bronson, James Coburn, James Garner, and Donald Pleasence. The expert direction of John Sturges, eminently hummable Elmer Bernstein score, and rip-roaring stunts come together in what may just be the most spectacularly entertaining prison-break movie of all time, a rousing ode to the determination, camaraderie, and courage of everyday heroes.

Special Features:
- None




General
Unique ID : 215248093124020410860607204351541803815 (0xA1EF46596C2E590A89C6A1DB13E87B27)
Complete name : F:\TheGreatEscape.1963.Cr.1p\TheGreatEscape.1963.Cr.1p.mkv
Format : Matroska
Format version : Version 4
File size : 6.28 GiB
Duration : 2 h 52 min
Overall bit rate : 5 209 kb/s
Movie name : Release RSU75
Encoded date : UTC 2020-05-19 04:17:43
Writing application : mkvmerge v6.6.0 ('The Edge Of The In Between') built on Dec 1 2013 17:55:00
Writing library : libebml v1.3.0 + libmatroska v1.4.1

Video
ID : 1
Format : AVC
Format/Info : Advanced Video Codec
Format profile : High@L4.1
Format settings : CABAC / 4 Ref Frames
Format settings, CABAC : Yes
Format settings, Reference fra : 4 frames
Codec ID : V_MPEG4/ISO/AVC
Duration : 2 h 52 min
Bit rate : 3 700 kb/s
Width : 1 920 pixels
Height : 816 pixels
Display aspect ratio : 2.35:1
Frame rate mode : Constant
Frame rate : 23.976 (23976/1000) FPS
Color space : YUV
Chroma subsampling : 4:2:0
Bit depth : 8 bits
Scan type : Progressive
Bits/(Pixel*Frame) : 0.098
Stream size : 4.33 GiB (69%)
Writing library : x264 core 148 r2643 5c65704
Encoding settings : cabac=1 / ref=4 / deblock=1:0:0 / analyse=0x3:0x113 / me=umh / subme=8 / psy=1 / psy_rd=1.00:0.00 / mixed_ref=1 / me_range=24 / chroma_me=1 / trellis=1 / 8x8dct=1 / cqm=0 / deadzone=21,11 / fast_pskip=1 / chroma_qp_offset=-2 / threads=3 / lookahead_threads=1 / sliced_threads=0 / nr=0 / decimate=1 / interlaced=0 / bluray_compat=0 / constrained_intra=0 / bframes=3 / b_pyramid=0 / b_adapt=2 / b_bias=0 / direct=3 / weightb=1 / open_gop=0 / weightp=2 / keyint=250 / keyint_min=25 / scenecut=40 / intra_refresh=0 / rc_lookahead=40 / rc=abr / mbtree=1 / bitrate=3700 / ratetol=1.0 / qcomp=0.60 / qpmin=10 / qpmax=51 / qpstep=4 / ip_ratio=1.41 / aq=1:1.00
Language : English
Default : Yes
Forced : No
Duration_Source : General_Duration

Audio
ID : 2
Format : DTS
Format/Info : Digital Theater Systems
Codec ID : A_DTS
Duration : 2 h 52 min
Bit rate mode : Constant
Bit rate : 1 509 kb/s
Channel(s) : 6 channels
Channel layout : C L R Ls Rs LFE
Sampling rate : 48.0 kHz
Frame rate : 93.750 FPS (512 SPF)
Bit depth : 24 bits
Compression mode : Lossy
Stream size : 1.82 GiB (29%)
Title : Surround 5.1
Language : English
Default : Yes
Forced : No
Duration_Source : General_Duration

Text
ID : 3
Format : PGS
Muxing mode : zlib
Codec ID : S_HDMV/PGS
Codec ID/Info : Picture based subtitle format used on BDs/HD-DVDs
Language : English
Default : Yes
Forced : No

Menu
00:00:00.000 : en:Chapter 01
00:22:28.805 : en:Chapter 02
00:26:17.158 : en:Chapter 03
00:33:35.638 : en:Chapter 04
00:40:49.613 : en:Chapter 05
00:47:14.122 : en:Chapter 06
00:55:56.853 : en:Chapter 07
01:04:39.792 : en:Chapter 08
01:12:36.226 : en:Chapter 09
01:16:15.487 : en:Chapter 10
01:31:35.490 : en:Chapter 11
01:40:02.204 : en:Chapter 12
01:45:02.087 : en:Chapter 13
02:06:07.893 : en:Chapter 14
02:13:08.605 : en:Chapter 15
02:20:23.623 : en:Chapter 16
02:33:36.081 : en:Chapter 17
02:40:05.596 : en:Chapter 18
02:45:02.350 : en:Chapter 19





General
Unique ID : 213927459182884183506503805156361245558 (0xA0F0EE11A46AF6D492639C0D78F41376)
Complete name : F:\TheGreatEscape.1963.Cr.7p\TheGreatEscape.1963.Cr.7p.mkv
Format : Matroska
Format version : Version 4
File size : 3.68 GiB
Duration : 2 h 52 min
Overall bit rate : 3 051 kb/s
Movie name : Release RSU75
Encoded date : UTC 2020-05-19 10:48:42
Writing application : mkvmerge v6.6.0 ('The Edge Of The In Between') built on Dec 1 2013 17:55:00
Writing library : libebml v1.3.0 + libmatroska v1.4.1

Video
ID : 1
Format : AVC
Format/Info : Advanced Video Codec
Format profile : High@L4.1
Format settings : CABAC / 4 Ref Frames
Format settings, CABAC : Yes
Format settings, Reference fra : 4 frames
Codec ID : V_MPEG4/ISO/AVC
Duration : 2 h 52 min
Bit rate : 2 600 kb/s
Width : 1 280 pixels
Height : 544 pixels
Display aspect ratio : 2.35:1
Frame rate mode : Constant
Frame rate : 23.976 (23976/1000) FPS
Color space : YUV
Chroma subsampling : 4:2:0
Bit depth : 8 bits
Scan type : Progressive
Bits/(Pixel*Frame) : 0.156
Stream size : 3.06 GiB (83%)
Writing library : x264 core 148 r2643 5c65704
Encoding settings : cabac=1 / ref=4 / deblock=1:0:0 / analyse=0x3:0x113 / me=umh / subme=8 / psy=1 / psy_rd=1.00:0.00 / mixed_ref=1 / me_range=24 / chroma_me=1 / trellis=1 / 8x8dct=1 / cqm=0 / deadzone=21,11 / fast_pskip=1 / chroma_qp_offset=-2 / threads=3 / lookahead_threads=1 / sliced_threads=0 / nr=0 / decimate=1 / interlaced=0 / bluray_compat=0 / constrained_intra=0 / bframes=3 / b_pyramid=0 / b_adapt=2 / b_bias=0 / direct=3 / weightb=1 / open_gop=0 / weightp=2 / keyint=250 / keyint_min=25 / scenecut=40 / intra_refresh=0 / rc_lookahead=40 / rc=abr / mbtree=1 / bitrate=2600 / ratetol=1.0 / qcomp=0.60 / qpmin=10 / qpmax=51 / qpstep=4 / ip_ratio=1.41 / aq=1:1.00
Language : English
Default : Yes
Forced : No
Duration_Source : General_Duration

Audio
ID : 2
Format : AC-3
Format/Info : Audio Coding 3
Commercial name : Dolby Digital
Codec ID : A_AC3
Duration : 2 h 52 min
Bit rate mode : Constant
Bit rate : 448 kb/s
Channel(s) : 6 channels
Channel layout : L R C LFE Ls Rs
Sampling rate : 48.0 kHz
Frame rate : 31.250 FPS (1536 SPF)
Compression mode : Lossy
Stream size : 553 MiB (15%)
Title : Surround 5.1
Language : English
Service kind : Complete Main
Default : Yes
Forced : No
Duration_Source : General_Duration

Text
ID : 3
Format : PGS
Muxing mode : zlib
Codec ID : S_HDMV/PGS
Codec ID/Info : Picture based subtitle format used on BDs/HD-DVDs
Language : English
Default : Yes
Forced : No

Menu
00:00:00.000 : en:Chapter 01
00:22:28.805 : en:Chapter 02
00:26:17.158 : en:Chapter 03
00:33:35.638 : en:Chapter 04
00:40:49.613 : en:Chapter 05
00:47:14.122 : en:Chapter 06
00:55:56.853 : en:Chapter 07
01:04:39.792 : en:Chapter 08
01:12:36.226 : en:Chapter 09
01:16:15.487 : en:Chapter 10
01:31:35.490 : en:Chapter 11
01:40:02.204 : en:Chapter 12
01:45:02.087 : en:Chapter 13
02:06:07.893 : en:Chapter 14
02:13:08.605 : en:Chapter 15
02:20:23.623 : en:Chapter 16
02:33:36.081 : en:Chapter 17
02:40:05.596 : en:Chapter 18
02:45:02.350 : en:Chapter 19




Screenshots 1080p (click to enlarge to original size):

The Great Escape (1963) [Criterion Collection]

The Great Escape (1963) [Criterion Collection]

The Great Escape (1963) [Criterion Collection]



Screenshots 720p (click to enlarge to original size):

The Great Escape (1963) [Criterion Collection]






If you like this release please visit my blog
In it you will find ALL the latest Criterion Collection releases