The Flavor of Green Tea Over Rice / Ochazuke no aji (1952) [Criterion Collection]

The Flavor of Green Tea Over Rice / Ochazuke no aji (1952) [Criterion Collection]

The Flavor of Green Tea Over Rice / Ochazuke no aji (1952) [Criterion Collection, Spine #989]
BDRip 1080p | MKV | AVC, 1488x1080, ~ 3.8 Mbps | 1hr 56mn | 3.46 GB | Japanese (日本語): AC3, 1 ch, 448 kbps
BDRip 720p | MKV | AVC, 992x720, ~ 2.6 Mbps | 1hr 56mn | 2.33 GB | Japanese (日本語): AC3, 1 ch, 256 kbps
Subtitles: English
Genre: Drama
IMDB Rating: 7.8/10 (1.909 votes)


Director: Yasujirô Ozu
Writers: Kôgo Noda, Yasujirô Ozu
Stars: Shin Saburi, Michiyo Kogure, Kôji Tsuruta

One of the ineffably lovely domestic sagas made by Yasujiro Ozu at the height of his mastery, The Flavor of Green Tea over Rice is a sublimely piercing portrait of a marriage coming quietly undone. Secrets and deceptions strain the already tenuous relationship of a childless, middle-aged couple, as the wife’s city-bred sophistication bumps up against the husband’s small-town simplicity, and a generational sea change—in the form of her headstrong, modern niece—sweeps over their household. The director’s abiding concern with family dynamics receives one of its most spirited treatments, with a wry, tender humor and buoyant expansiveness that moves the action from the home into the baseball stadiums, pachinko parlors, and ramen shops of postwar Tokyo.

Extras:
- None




General
Unique ID : 195140600995517500949552545214823060243 (0x92CEB67258DE20E796038FB23712D313)
Complete name : F:\TheFlavorOfGreenTeaOverRice.1952.Cr.1p\TheFlavorOfGreenTeaOverRice.1952.Cr.1p.mkv
Format : Matroska
Format version : Version 4 / Version 2
File size : 3.46 GiB
Duration : 1 h 56 min
Overall bit rate : 4 260 kb/s
Movie name : Release RSU75
Encoded date : UTC 2019-09-08 03:53:49
Writing application : mkvmerge v6.6.0 ('The Edge Of The In Between') built on Dec 1 2013 17:55:00
Writing library : libebml v1.3.0 + libmatroska v1.4.1

Video
ID : 1
Format : AVC
Format/Info : Advanced Video Codec
Format profile : High@L4.1
Format settings : CABAC / 4 Ref Frames
Format settings, CABAC : Yes
Format settings, ReFrames : 4 frames
Codec ID : V_MPEG4/ISO/AVC
Duration : 1 h 56 min
Bit rate : 3 800 kb/s
Width : 1 488 pixels
Height : 1 080 pixels
Display aspect ratio : 1.378
Frame rate mode : Constant
Frame rate : 23.976 (23976/1000) FPS
Color space : YUV
Chroma subsampling : 4:2:0
Bit depth : 8 bits
Scan type : Progressive
Bits/(Pixel*Frame) : 0.099
Stream size : 3.03 GiB (87%)
Writing library : x264 core 148 r2643 5c65704
Encoding settings : cabac=1 / ref=4 / deblock=1:0:0 / analyse=0x3:0x113 / me=umh / subme=8 / psy=1 / psy_rd=1.00:0.00 / mixed_ref=1 / me_range=24 / chroma_me=1 / trellis=1 / 8x8dct=1 / cqm=0 / deadzone=21,11 / fast_pskip=1 / chroma_qp_offset=-2 / threads=3 / lookahead_threads=1 / sliced_threads=0 / nr=0 / decimate=1 / interlaced=0 / bluray_compat=0 / constrained_intra=0 / bframes=3 / b_pyramid=0 / b_adapt=2 / b_bias=0 / direct=3 / weightb=1 / open_gop=0 / weightp=2 / keyint=250 / keyint_min=25 / scenecut=40 / intra_refresh=0 / rc_lookahead=40 / rc=abr / mbtree=1 / bitrate=3800 / ratetol=1.0 / qcomp=0.60 / qpmin=10 / qpmax=51 / qpstep=4 / ip_ratio=1.41 / aq=1:1.00
Language : English
Default : Yes
Forced : No

Audio
ID : 2
Format : AC-3
Format/Info : Audio Coding 3
Commercial name : Dolby Digital
Codec ID : A_AC3
Duration : 1 h 56 min
Bit rate mode : Constant
Bit rate : 448 kb/s
Channel(s) : 1 channel
Channel layout : C
Sampling rate : 44.1 kHz
Frame rate : 28.711 FPS (1536 SPF)
Bit depth : 16 bits
Compression mode : Lossy
Stream size : 373 MiB (11%)
Language : Japanese
Service kind : Complete Main
Default : Yes
Forced : No

Text
ID : 3
Format : PGS
Muxing mode : zlib
Codec ID : S_HDMV/PGS
Codec ID/Info : Picture based subtitle format used on BDs/HD-DVDs
Language : English
Default : Yes
Forced : No

Menu
00:00:00.000 : en:Chapter 01
00:12:32.793 : en:Chapter 02
00:18:28.774 : en:Chapter 03
00:26:05.772 : en:Chapter 04
00:30:00.507 : en:Chapter 05
00:36:08.958 : en:Chapter 06
00:46:03.427 : en:Chapter 07
00:54:58.420 : en:Chapter 08
01:03:36.562 : en:Chapter 09
01:12:38.854 : en:Chapter 10
01:23:09.651 : en:Chapter 11
01:28:39.772 : en:Chapter 12
01:31:34.822 : en:Chapter 13
01:37:06.070 : en:Chapter 14
01:50:10.604 : en:Chapter 15





General
Unique ID : 219179997860110663777259649011798712829 (0xA4E488384AD1A243B9872ED0F76F21FD)
Complete name : F:\TheFlavorOfGreenTeaOverRice.1952.Cr.7p\TheFlavorOfGreenTeaOverRice.1952.Cr.7p.mkv
Format : Matroska
Format version : Version 4 / Version 2
File size : 2.33 GiB
Duration : 1 h 56 min
Overall bit rate : 2 868 kb/s
Movie name : Release RSU75
Encoded date : UTC 2019-09-08 03:47:57
Writing application : mkvmerge v6.6.0 ('The Edge Of The In Between') built on Dec 1 2013 17:55:00
Writing library : libebml v1.3.0 + libmatroska v1.4.1

Video
ID : 1
Format : AVC
Format/Info : Advanced Video Codec
Format profile : High@L4.1
Format settings : CABAC / 4 Ref Frames
Format settings, CABAC : Yes
Format settings, ReFrames : 4 frames
Codec ID : V_MPEG4/ISO/AVC
Duration : 1 h 56 min
Bit rate : 2 600 kb/s
Width : 992 pixels
Height : 720 pixels
Display aspect ratio : 1.378
Frame rate mode : Constant
Frame rate : 23.976 (23976/1000) FPS
Color space : YUV
Chroma subsampling : 4:2:0
Bit depth : 8 bits
Scan type : Progressive
Bits/(Pixel*Frame) : 0.152
Stream size : 2.08 GiB (89%)
Writing library : x264 core 148 r2643 5c65704
Encoding settings : cabac=1 / ref=4 / deblock=1:0:0 / analyse=0x3:0x113 / me=umh / subme=8 / psy=1 / psy_rd=1.00:0.00 / mixed_ref=1 / me_range=24 / chroma_me=1 / trellis=1 / 8x8dct=1 / cqm=0 / deadzone=21,11 / fast_pskip=1 / chroma_qp_offset=-2 / threads=3 / lookahead_threads=1 / sliced_threads=0 / nr=0 / decimate=1 / interlaced=0 / bluray_compat=0 / constrained_intra=0 / bframes=3 / b_pyramid=0 / b_adapt=2 / b_bias=0 / direct=3 / weightb=1 / open_gop=0 / weightp=2 / keyint=250 / keyint_min=25 / scenecut=40 / intra_refresh=0 / rc_lookahead=40 / rc=abr / mbtree=1 / bitrate=2600 / ratetol=1.0 / qcomp=0.60 / qpmin=10 / qpmax=51 / qpstep=4 / ip_ratio=1.41 / aq=1:1.00
Language : English
Default : Yes
Forced : No

Audio
ID : 2
Format : AC-3
Format/Info : Audio Coding 3
Commercial name : Dolby Digital
Codec ID : A_AC3
Duration : 1 h 56 min
Bit rate mode : Constant
Bit rate : 256 kb/s
Channel(s) : 1 channel
Channel layout : C
Sampling rate : 44.1 kHz
Frame rate : 28.711 FPS (1536 SPF)
Bit depth : 16 bits
Compression mode : Lossy
Stream size : 213 MiB (9%)
Language : Japanese
Service kind : Complete Main
Default : Yes
Forced : No

Text
ID : 3
Format : PGS
Muxing mode : zlib
Codec ID : S_HDMV/PGS
Codec ID/Info : Picture based subtitle format used on BDs/HD-DVDs
Language : English
Default : Yes
Forced : No

Menu
00:00:00.000 : en:Chapter 01
00:12:32.793 : en:Chapter 02
00:18:28.774 : en:Chapter 03
00:26:05.772 : en:Chapter 04
00:30:00.507 : en:Chapter 05
00:36:08.958 : en:Chapter 06
00:46:03.427 : en:Chapter 07
00:54:58.420 : en:Chapter 08
01:03:36.562 : en:Chapter 09
01:12:38.854 : en:Chapter 10
01:23:09.651 : en:Chapter 11
01:28:39.772 : en:Chapter 12
01:31:34.822 : en:Chapter 13
01:37:06.070 : en:Chapter 14
01:50:10.604 : en:Chapter 15




Screenshots 1080p (click to enlarge to original size):

The Flavor of Green Tea Over Rice / Ochazuke no aji (1952) [Criterion Collection]

The Flavor of Green Tea Over Rice / Ochazuke no aji (1952) [Criterion Collection]

The Flavor of Green Tea Over Rice / Ochazuke no aji (1952) [Criterion Collection]



Screenshots 720p (click to enlarge to original size):

The Flavor of Green Tea Over Rice / Ochazuke no aji (1952) [Criterion Collection]




–––––––––––––––––––––––––––––––––––––––-
>>> "Criterion Collection" <<< OR >>> "BDRip" <<< OR >>> "Yasujirô Ozu" <<<
–––––––––––––––––––––––––––––––––––––––-
>>> Visit Blog RSU75 Here <<<
–––––––––––––––––––––––––––––––––––––––-