The Ballad of Berlin / Berliner Ballade (1948)

The Ballad of Berlin / Berliner Ballade (1948)

The Ballad of Berlin / Berliner Ballade (1948)
BDRip 1080p | MKV | AVC, 1480x1080, ~ 3.8 Mbps | 1hr 29mn | 3.56 GB
German (Deutsch): DTS, 2 ch, 1510 kbps \ AC3, 2 ch, 384 kbps
BDRip 720p | MKV | AVC, 988x720, ~ 2.6 Mbps | 1hr 29mn | 2.15 GB
German (Deutsch): AC3, 2 ch, 448 kbps \ AC3, 2 ch, 384 kbps
Subtitles: English, German (Deutsch)
Genre: Comedy, Musical



Director: Robert A. Stemmle (as R.A. Stemmle)
Writer: Günter Neumann (story), Günter Neumann (screenplay)
Stars: Gert Fröbe, Tatjana Sais, Ute Sielisch

Told in the style of the German cabaret theatre, where both Gunther Neumann and Gert Frobe were important members, this is a balladeer's version of a serious plot with musical interludes. The year is 2050 and the audience is asked to look at a telecast of 'The Ancients", from a century ago. Flashback to Germany, 1948, where Otto Normalverbraucher (Otto Averageman in the English-narrated version) is just returning from service in the German army during World War II. His experiences, told tongue-in-cheek, of the troubles that beset the average, law-abiding German citizen in post-war, war-torn destitute Germany and his awareness of the changes and problems are the bulk of the story.

Extras:
- None




General
Unique ID : 204061501686433161573711700717983176597 (0x9984D0CF0ED278F5805B004B303B1795)
Complete name : F:\TheBalladOfBerlin.1948.1p\TheBalladOfBerlin.1948.1p.mkv
Format : Matroska
Format version : Version 4 / Version 2
File size : 3.56 GiB
Duration : 1 h 29 min
Overall bit rate : 5 720 kb/s
Movie name : Release RSU75
Encoded date : UTC 2020-03-22 03:29:38
Writing application : mkvmerge v6.6.0 ('The Edge Of The In Between') built on Dec 1 2013 17:55:00
Writing library : libebml v1.3.0 + libmatroska v1.4.1

Video
ID : 1
Format : AVC
Format/Info : Advanced Video Codec
Format profile : High@L4.1
Format settings : CABAC / 4 Ref Frames
Format settings, CABAC : Yes
Format settings, ReFrames : 4 frames
Codec ID : V_MPEG4/ISO/AVC
Duration : 1 h 29 min
Bit rate : 3 800 kb/s
Width : 1 480 pixels
Height : 1 080 pixels
Display aspect ratio : 1.370
Frame rate mode : Constant
Frame rate : 24.000 FPS
Color space : YUV
Chroma subsampling : 4:2:0
Bit depth : 8 bits
Scan type : Progressive
Bits/(Pixel*Frame) : 0.099
Stream size : 2.31 GiB (65%)
Writing library : x264 core 148 r2643 5c65704
Encoding settings : cabac=1 / ref=4 / deblock=1:0:0 / analyse=0x3:0x113 / me=umh / subme=8 / psy=1 / psy_rd=1.00:0.00 / mixed_ref=1 / me_range=24 / chroma_me=1 / trellis=1 / 8x8dct=1 / cqm=0 / deadzone=21,11 / fast_pskip=1 / chroma_qp_offset=-2 / threads=3 / lookahead_threads=1 / sliced_threads=0 / nr=0 / decimate=1 / interlaced=0 / bluray_compat=0 / constrained_intra=0 / bframes=3 / b_pyramid=0 / b_adapt=2 / b_bias=0 / direct=3 / weightb=1 / open_gop=0 / weightp=2 / keyint=250 / keyint_min=25 / scenecut=40 / intra_refresh=0 / rc_lookahead=40 / rc=abr / mbtree=1 / bitrate=3800 / ratetol=1.0 / qcomp=0.60 / qpmin=10 / qpmax=51 / qpstep=4 / ip_ratio=1.41 / aq=1:1.00
Language : English
Default : Yes
Forced : No

Audio #1
ID : 2
Format : DTS
Format/Info : Digital Theater Systems
Codec ID : A_DTS
Duration : 1 h 29 min
Bit rate mode : Constant
Bit rate : 1 509 kb/s
Channel(s) : 2 channels
Channel layout : L R
Sampling rate : 48.0 kHz
Frame rate : 93.750 FPS (512 SPF)
Bit depth : 24 bits
Compression mode : Lossy
Stream size : 962 MiB (26%)
Title : Stereo
Language : German
Default : Yes
Forced : No

Audio #2
ID : 3
Format : AC-3
Format/Info : Audio Coding 3
Commercial name : Dolby Digital
Codec ID : A_AC3
Duration : 1 h 29 min
Bit rate mode : Constant
Bit rate : 384 kb/s
Channel(s) : 2 channels
Channel layout : L R
Sampling rate : 48.0 kHz
Frame rate : 31.250 FPS (1536 SPF)
Bit depth : 16 bits
Compression mode : Lossy
Stream size : 245 MiB (7%)
Title : Stereo
Language : German
Service kind : Complete Main
Default : No
Forced : No

Text #1
ID : 4
Format : PGS
Muxing mode : zlib
Codec ID : S_HDMV/PGS
Codec ID/Info : Picture based subtitle format used on BDs/HD-DVDs
Language : German
Default : No
Forced : No

Text #2
ID : 5
Format : PGS
Muxing mode : zlib
Codec ID : S_HDMV/PGS
Codec ID/Info : Picture based subtitle format used on BDs/HD-DVDs
Language : English
Default : Yes
Forced : No

Menu
00:00:00.000 : en:Chapter 01
00:07:34.500 : en:Chapter 02
00:11:18.625 : en:Chapter 03
00:17:41.708 : en:Chapter 04
00:22:25.583 : en:Chapter 05
00:26:57.000 : en:Chapter 06
00:33:48.833 : en:Chapter 07
00:42:46.125 : en:Chapter 08
00:53:29.083 : en:Chapter 09
00:58:57.958 : en:Chapter 10
01:05:30.208 : en:Chapter 11
01:14:53.083 : en:Chapter 12
01:29:04.541 : en:Chapter 13





General
Unique ID : 205558979829090505543537745312622756337 (0x9AA5382E77F28B609901BE1C1B3EC1F1)
Complete name : F:\TheBalladOfBerlin.1948.7p\TheBalladOfBerlin.1948.7p.mkv
Format : Matroska
Format version : Version 4 / Version 2
File size : 2.15 GiB
Duration : 1 h 29 min
Overall bit rate : 3 460 kb/s
Movie name : Release RSU75
Encoded date : UTC 2020-03-22 15:35:46
Writing application : mkvmerge v6.6.0 ('The Edge Of The In Between') built on Dec 1 2013 17:55:00
Writing library : libebml v1.3.0 + libmatroska v1.4.1

Video
ID : 1
Format : AVC
Format/Info : Advanced Video Codec
Format profile : High@L4.1
Format settings : CABAC / 4 Ref Frames
Format settings, CABAC : Yes
Format settings, ReFrames : 4 frames
Codec ID : V_MPEG4/ISO/AVC
Duration : 1 h 29 min
Bit rate : 2 600 kb/s
Width : 988 pixels
Height : 720 pixels
Display aspect ratio : 1.371
Original display aspect rat : 1.370
Frame rate mode : Constant
Frame rate : 24.000 FPS
Color space : YUV
Chroma subsampling : 4:2:0
Bit depth : 8 bits
Scan type : Progressive
Bits/(Pixel*Frame) : 0.152
Stream size : 1.59 GiB (74%)
Writing library : x264 core 148 r2643 5c65704
Encoding settings : cabac=1 / ref=4 / deblock=1:0:0 / analyse=0x3:0x113 / me=umh / subme=8 / psy=1 / psy_rd=1.00:0.00 / mixed_ref=1 / me_range=24 / chroma_me=1 / trellis=1 / 8x8dct=1 / cqm=0 / deadzone=21,11 / fast_pskip=1 / chroma_qp_offset=-2 / threads=3 / lookahead_threads=1 / sliced_threads=0 / nr=0 / decimate=1 / interlaced=0 / bluray_compat=0 / constrained_intra=0 / bframes=3 / b_pyramid=0 / b_adapt=2 / b_bias=0 / direct=3 / weightb=1 / open_gop=0 / weightp=2 / keyint=250 / keyint_min=25 / scenecut=40 / intra_refresh=0 / rc_lookahead=40 / rc=abr / mbtree=1 / bitrate=2600 / ratetol=1.0 / qcomp=0.60 / qpmin=10 / qpmax=51 / qpstep=4 / ip_ratio=1.41 / aq=1:1.00
Language : English
Default : Yes
Forced : No

Audio #1
ID : 2
Format : AC-3
Format/Info : Audio Coding 3
Commercial name : Dolby Digital
Codec ID : A_AC3
Duration : 1 h 29 min
Bit rate mode : Constant
Bit rate : 448 kb/s
Channel(s) : 2 channels
Channel layout : L R
Sampling rate : 48.0 kHz
Frame rate : 31.250 FPS (1536 SPF)
Bit depth : 16 bits
Compression mode : Lossy
Stream size : 286 MiB (13%)
Title : Stereo
Language : German
Service kind : Complete Main
Default : Yes
Forced : No

Audio #2
ID : 3
Format : AC-3
Format/Info : Audio Coding 3
Commercial name : Dolby Digital
Codec ID : A_AC3
Duration : 1 h 29 min
Bit rate mode : Constant
Bit rate : 384 kb/s
Channel(s) : 2 channels
Channel layout : L R
Sampling rate : 48.0 kHz
Frame rate : 31.250 FPS (1536 SPF)
Bit depth : 16 bits
Compression mode : Lossy
Stream size : 245 MiB (11%)
Title : Stereo
Language : German
Service kind : Complete Main
Default : No
Forced : No

Text #1
ID : 4
Format : PGS
Muxing mode : zlib
Codec ID : S_HDMV/PGS
Codec ID/Info : Picture based subtitle format used on BDs/HD-DVDs
Language : German
Default : No
Forced : No

Text #2
ID : 5
Format : PGS
Muxing mode : zlib
Codec ID : S_HDMV/PGS
Codec ID/Info : Picture based subtitle format used on BDs/HD-DVDs
Language : English
Default : Yes
Forced : No

Menu
00:00:00.000 : en:Chapter 01
00:07:34.500 : en:Chapter 02
00:11:18.625 : en:Chapter 03
00:17:41.708 : en:Chapter 04
00:22:25.583 : en:Chapter 05
00:26:57.000 : en:Chapter 06
00:33:48.833 : en:Chapter 07
00:42:46.125 : en:Chapter 08
00:53:29.083 : en:Chapter 09
00:58:57.958 : en:Chapter 10
01:05:30.208 : en:Chapter 11
01:14:53.083 : en:Chapter 12
01:29:04.541 : en:Chapter 13




Screenshots 1080p (click to enlarge to original size):

The Ballad of Berlin / Berliner Ballade (1948)

The Ballad of Berlin / Berliner Ballade (1948)

The Ballad of Berlin / Berliner Ballade (1948)



Screenshots 720p (click to enlarge to original size):

The Ballad of Berlin / Berliner Ballade (1948)






If you like this release please visit my blog
In it you will find "BDRip" releases in different languages