BBC - The War Game (1966)

BBC - The War Game (1966)

BBC - The War Game (1966)
HDTV | 960x720 | .MKV/AVC @ 6108 Kbps | 46 min 21 s | 2.19 GiB
Audio: English AC3 640 kbps, 1 channels | Subs: None
Genre: Documentary

Filmed as a docudrama, this documentary seeks to inform the British public of the impact a nuclear attack would have on the UK. After confirming that few in the general public know about nuclear energy and its possible impacts the film moves on to suggest there would be forced relocation to sites outside of London, forced billeting and food rationing. The film then moves on to the real issue: that most of England would be destroyed (or at a minimum become unlivable) in a nuclear attack. This program was commissioned by the BBC but not shown on television as they thought it to be too frightening.

The film was eventually televised in Great Britain on 31 July 1985, during the week before the fortieth anniversary of the Hiroshima bombing […].

'The War Game' won the 1967 Academy Award for Best Documentary Feature.

General
Unique ID : 221605364455002505001537540513744399397 (0xA6B7A4067E2DEB018ADE82E83921AC25)
Complete name : The.War.Game.1965.720p.mkv
Format : Matroska
Format version : Version 4 / Version 2
File size : 2.19 GiB
Duration : 46 min 21 s
Overall bit rate : 6 748 kb/s

Video
ID : 2
Format : AVC
Format/Info : Advanced Video Codec
Format profile : High@L4.1
Format settings, CABAC : Yes
Format settings, ReFrames : 5 frames
Codec ID : V_MPEG4/ISO/AVC
Duration : 46 min 21 s
Bit rate : 6 108 kb/s
Width : 960 pixels
Height : 720 pixels
Display aspect ratio : 4:3
Frame rate mode : Constant
Frame rate : 25.000 FPS
Color space : YUV
Chroma subsampling : 4:2:0
Bit depth : 8 bits
Scan type : Progressive
Bits/(Pixel*Frame) : 0.353
Stream size : 1.93 GiB (89%)
Writing library : x264 core 148 r2692 64f4e24
Encoding settings : cabac=1 / ref=5 / deblock=1:-1:-1 / analyse=0x3:0x133 / me=umh / subme=7 / psy=1 / psy_rd=1.00:0.00 / mixed_ref=1 / me_range=16 / chroma_me=1 / trellis=1 / 8x8dct=1 / cqm=0 / deadzone=21,11 / fast_pskip=0 / chroma_qp_offset=-2 / threads=6 / lookahead_threads=1 / sliced_threads=0 / nr=0 / decimate=1 / interlaced=0 / bluray_compat=0 / constrained_intra=0 / bframes=3 / b_pyramid=2 / b_adapt=2 / b_bias=0 / direct=3 / weightb=1 / open_gop=0 / weightp=2 / keyint=250 / keyint_min=25 / scenecut=40 / intra_refresh=0 / rc_lookahead=50 / rc=2pass / mbtree=1 / bitrate=6108 / ratetol=1.0 / qcomp=0.60 / qpmin=10 / qpmax=51 / qpstep=4 / cplxblur=20.0 / qblur=0.5 / vbv_maxrate=62500 / vbv_bufsize=78125 / nal_hrd=none / filler=0 / ip_ratio=1.40 / aq=1:1.00
Default : Yes
Forced : No

Audio
ID : 1
Format : AC-3
Format/Info : Audio Coding 3
Format settings, Endianness : Big
Codec ID : A_AC3
Duration : 46 min 21 s
Bit rate mode : Constant
Bit rate : 640 kb/s
Channel(s) : 1 channel
Channel positions : Front: C
Sampling rate : 48.0 kHz
Frame rate : 31.250 FPS (1536 spf)
Bit depth : 16 bits
Compression mode : Lossy
Stream size : 212 MiB (9%)
Language : English
Service kind : Complete Main
Default : Yes
Forced : No

Menu
00:00:00.000 : en:00:00:00.000
00:09:35.480 : en:00:09:35.480
00:22:40.520 : en:00:22:40.520
00:34:07.960 : en:00:34:07.960


Screenshots:

BBC - The War Game (1966)

BBC - The War Game (1966)

BBC - The War Game (1966)

BBC - The War Game (1966)