The Thing (1982)

The Thing (1982)

The Thing (1982)
BDRip 1080p | 1h 48mn | 1920x818 | MKV AVC@17.0 Mbps 23.98fps | 15.21 GiB
English FLAC 2CH 48KHz | Englishx2 DTS@768Kbps 6CH 48KHz | Commentaryx2 AAC@100Kbps 2CH 48KHz
Genre: Horror, Mystery, Sci-Fi | Subtitles: English

A US research station, Antarctica, early-winter 1982. The base is suddenly buzzed by a helicopter from the nearby Norwegian research station. They are trying to kill a dog that has escaped from their base. After the destruction of the Norwegian chopper the members of the US team fly to the Norwegian base, only to discover them all dead or missing. They do find the remains of a strange creature the Norwegians burned. The Americans take it to their base and deduce that it is an alien life form. After a while it is apparent that the alien can take over and assimilate into other life forms, including humans, and can spread like a virus. This means that anyone at the base could be inhabited by The Thing, and tensions escalate.

Director: John Carpenter
Writers: Bill Lancaster (screenplay), John W. Campbell Jr. (story)
Stars: Kurt Russell, Wilford Brimley, Keith David
Country: USA
Also Known As: John Carpenter's The Thing
Ratings: 8.2/10 from 289,785 users (3 nominations) | Top Rated Movies #163
Commentary:
-English Commentary by John Carpenter and actor Kurt Russell
-English Commentary with Mike White Patrick Bromley and El Goro


ID : 1
Format : AVC
Format/Info : Advanced Video Codec
Format profile : High@L4.1
Format settings, CABAC : Yes
Format settings, ReFrames : 5 frames
Codec ID : V_MPEG4/ISO/AVC
Duration : 1h 48mn
Width : 1 920 pixels
Height : 818 pixels
Display aspect ratio : 2.35:1
Frame rate mode : Constant
Frame rate : 23.976 (24000/1001) fps
Color space : YUV
Chroma subsampling : 4:2:0
Bit depth : 8 bits
Scan type : Progressive
Writing library : x264 core 152 r2851 ba24899
Encoding settings : cabac=1 / ref=5 / deblock=1:-3:-3 / analyse=0x3:0x133 / me=umh / subme=10 / psy=1 / psy_rd=1.10:0.00 / mixed_ref=1 / me_range=48 / chroma_me=1 / trellis=2 / 8x8dct=1 / cqm=0 / deadzone=21,11 / fast_pskip=0 / chroma_qp_offset=-2 / threads=24 / lookahead_threads=4 / sliced_threads=0 / nr=0 / decimate=1 / interlaced=0 / bluray_compat=0 / constrained_intra=0 / bframes=8 / b_pyramid=2 / b_adapt=2 / b_bias=0 / direct=3 / weightb=1 / open_gop=0 / weightp=2 / keyint=240 / keyint_min=24 / scenecut=40 / intra_refresh=0 / rc_lookahead=60 / rc=crf / mbtree=1 / crf=18.0 / qcomp=0.60 / qpmin=0 / qpmax=69 / qpstep=4 / ip_ratio=1.30 / aq=3:0.75
Language : English
Default : Yes
Forced : No
Statistics Tags Issue : no_variable_data 1970-01-01 00:00:00 / no_variable_data 2010-02-22 21:41:29
FromStats_BitRate : 17007720
FromStats_Duration : 01:48:36.552000000
FromStats_FrameCount : 156241
FromStats_StreamSize : 13853962036

Audio #1
ID : 2
Format : FLAC
Format/Info : Free Lossless Audio Codec
Codec ID : A_FLAC
Duration : 1h 48mn
Bit rate mode : Variable
Channel(s) : 2 channels
Channel positions : Front: L R
Sampling rate : 48.0 KHz
Bit depth : 24 bits
Title : Original 2.0
Writing library : libFLAC 1.2.1 (UTC 2007-09-17)
Language : English
Default : Yes
Forced : No
Statistics Tags Issue : no_variable_data 1970-01-01 00:00:00 / no_variable_data 2010-02-22 21:41:29
FromStats_BitRate : 1293828
FromStats_Duration : 01:48:36.510000000
FromStats_FrameCount : 76366
FromStats_StreamSize : 1053905853

Audio #2
ID : 3
Format : DTS
Format/Info : Digital Theater Systems
Mode : 16
Format settings, Endianness : Big
Codec ID : A_DTS
Duration : 1h 48mn
Bit rate mode : Constant
Bit rate : 768 Kbps
Channel(s) : 5 channels
Channel positions : Front: L C R, Back: C, LFE
Sampling rate : 48.0 KHz
Frame rate : 93.750 fps (512 spf)
Bit depth : 24 bits
Compression mode : Lossy
Stream size : 597 MiB (4%)
Title : Original 4.1
Language : English
Default : No
Forced : No
Statistics Tags Issue : no_variable_data 1970-01-01 00:00:00 / no_variable_data 2010-02-22 21:41:29
FromStats_BitRate : 768000
FromStats_Duration : 01:48:36.512000000
FromStats_FrameCount : 610923
FromStats_StreamSize : 625585152

Audio #3
ID : 4
Format : DTS
Format/Info : Digital Theater Systems
Mode : 16
Format settings, Endianness : Big
Codec ID : A_DTS
Duration : 1h 48mn
Bit rate mode : Constant
Bit rate : 768 Kbps
Channel(s) : 6 channels
Channel positions : Front: L C R, Side: L R, LFE
Sampling rate : 48.0 KHz
Frame rate : 93.750 fps (512 spf)
Bit depth : 24 bits
Compression mode : Lossy
Stream size : 597 MiB (4%)
Title : 5.1 Upmix
Language : English
Default : No
Forced : No
Statistics Tags Issue : no_variable_data 1970-01-01 00:00:00 / no_variable_data 2010-02-22 21:41:29
FromStats_BitRate : 768000
FromStats_Duration : 01:48:36.512000000
FromStats_FrameCount : 610923
FromStats_StreamSize : 625585152

Audio #4
ID : 5
Format : AAC
Format/Info : Advanced Audio Codec
Format profile : LC
Codec ID : A_AAC
Duration : 1h 48mn
Channel(s) : 2 channels
Channel positions : Front: L R
Sampling rate : 48.0 KHz
Frame rate : 46.875 fps (1024 spf)
Compression mode : Lossy
Delay relative to video : 9ms
Title : Commentary by John Carpenter and actor Kurt Russell
Language : English
Default : No
Forced : No
Statistics Tags Issue : no_variable_data 1970-01-01 00:00:00 / no_variable_data 2010-02-22 21:41:29
FromStats_BitRate : 108035
FromStats_Duration : 01:48:36.523000000
FromStats_FrameCount : 305462
FromStats_StreamSize : 88002095

Audio #5
ID : 6
Format : AAC
Format/Info : Advanced Audio Codec
Format profile : LC
Codec ID : A_AAC
Duration : 1h 48mn
Channel(s) : 2 channels
Channel positions : Front: L R
Sampling rate : 48.0 KHz
Frame rate : 46.875 fps (1024 spf)
Compression mode : Lossy
Delay relative to video : 9ms
Title : Commentary with Mike White Patrick Bromley and El Goro
Language : English
Default : No
Forced : No
Statistics Tags Issue : no_variable_data 1970-01-01 00:00:00 / no_variable_data 2010-02-22 21:41:29
FromStats_BitRate : 97979
FromStats_Duration : 01:48:36.523000000
FromStats_FrameCount : 305462
FromStats_StreamSize : 79810325

Text #1
ID : 7
Format : UTF-8
Codec ID : S_TEXT/UTF8
Codec ID/Info : UTF-8 Plain Text
Title : Stripped SRT
Language : English
Default : No
Forced : No
Statistics Tags Issue : no_variable_data 1970-01-01 00:00:00 / no_variable_data 2010-02-22 21:41:29
FromStats_BitRate : 32
FromStats_Duration : 01:36:08.012000000
FromStats_FrameCount : 637
FromStats_StreamSize : 23682

Text #2
ID : 8
Format : UTF-8
Codec ID : S_TEXT/UTF8
Codec ID/Info : UTF-8 Plain Text
Title : SDH SRT
Language : English
Default : No
Forced : No
Statistics Tags Issue : no_variable_data 1970-01-01 00:00:00 / no_variable_data 2010-02-22 21:41:29
FromStats_BitRate : 33
FromStats_Duration : 01:39:15.491000000
FromStats_FrameCount : 713
FromStats_StreamSize : 25168

Text #3
ID : 9
Format : PGS
Muxing mode : zlib
Codec ID : S_HDMV/PGS
Codec ID/Info : Picture based subtitle format used on BDs/HD-DVDs
Title : SDH SUP
Language : English
Default : No
Forced : No
Statistics Tags Issue : no_variable_data 1970-01-01 00:00:00 / no_variable_data 2010-02-22 21:41:29
FromStats_BitRate : 19808
FromStats_Duration : 01:39:15.491000000
FromStats_FrameCount : 1425
FromStats_StreamSize : 14746051

Menu
00:00:00.000 : en:00:00:00.000
00:05:47.097 : en:00:05:47.097
00:16:49.050 : en:00:16:49.050
00:25:47.296 : en:00:25:47.296
00:37:20.655 : en:00:37:20.655
00:45:30.311 : en:00:45:30.311
00:54:42.196 : en:00:54:42.196
01:02:45.387 : en:01:02:45.387
01:09:49.977 : en:01:09:49.977
01:17:41.699 : en:01:17:41.699
01:27:07.806 : en:01:27:07.806
01:33:19.052 : en:01:33:19.052



imdb iNFO

Screenshots
BDRip 1080p
The Thing (1982)