The T.A.M.I. Show (1964)

The T.A.M.I. Show (1964)

The T.A.M.I. Show (1964)
BDRip | 720x406 | .MKV/AVC @ 1332 Kbps | 1h 52min | 1.11 GiB
Audio: English AAC 83 kbps, 2 channels | Subs: None
Genre: Documentary

Chuck Berry opens the show and performs "Johnny B Goode" and his 1955 hit Maebelline". He is then joined by " Gerry and The Pacemakers" who do their updated British version of the song. and a medley of their hits. "Billy J Kramer and The Dakotas perform "Little Children " and "Bad To Me". Detroits' Motown is represented as "Diana Ross and The Supremes " sing "Baby Love" , by "Smokey Robinson and The Miracles" who sing "You've Really Got A Hold On Me" and by Marvin Gaye who sings " Hitchhike". NYCs Leslie Gore sings "It's My Party" and "You Don't Own Me",a million seller several years before "women's lib" The 'early surfer' hosts, Jan and Dean sing "The Little Old Lady From Passedena". "The Beach Boys" sing " I Get Around". James Brown, making his first nationally televised appearance, performs his standards "Out Of Sight", "Prisoner Of Love", "Night Train" and "Please Please Please", with cape. The Rolling Stones , in their first major venue, close the show performing "Time Is On My.
More info


General
Unique ID : 175061642479622322952779319501878598803 (0x83B3A55C18611FACADBBA00783221C93)
Complete name : The.T.A.M.I.Show.1964.BDRip.mkv
Format : Matroska
Format version : Version 4 / Version 2
File size : 1.11 GiB
Duration : 1 h 52 min
Overall bit rate : 1 417 kb/s

Video
ID : 1
Format : AVC
Format/Info : Advanced Video Codec
Format profile : High@L3.1
Format settings, CABAC : Yes
Format settings, ReFrames : 5 frames
Codec ID : V_MPEG4/ISO/AVC
Duration : 1 h 52 min
Bit rate : 1 332 kb/s
Width : 720 pixels
Height : 406 pixels
Display aspect ratio : 16:9
Frame rate mode : Constant
Frame rate : 23.976 (24000/1001) FPS
Color space : YUV
Chroma subsampling : 4:2:0
Bit depth : 8 bits
Scan type : Progressive
Bits/(Pixel*Frame) : 0.190
Stream size : 1.05 GiB (94%)
Writing library : x264 core 152 r2851 ba24899
Encoding settings : cabac=1 / ref=5 / deblock=1:-3:-3 / analyse=0x3:0x113 / me=umh / subme=8 / psy=1 / psy_rd=1.00:0.25 / mixed_ref=1 / me_range=24 / chroma_me=1 / trellis=2 / 8x8dct=1 / cqm=0 / deadzone=21,11 / fast_pskip=1 / chroma_qp_offset=-4 / threads=13 / lookahead_threads=2 / sliced_threads=0 / nr=0 / decimate=1 / interlaced=0 / bluray_compat=0 / constrained_intra=0 / bframes=3 / b_pyramid=2 / b_adapt=1 / b_bias=0 / direct=3 / weightb=1 / open_gop=0 / weightp=2 / keyint=240 / keyint_min=24 / scenecut=40 / intra_refresh=0 / rc_lookahead=50 / rc=crf / mbtree=1 / crf=23.0 / qcomp=0.60 / qpmin=0 / qpmax=69 / qpstep=4 / ip_ratio=1.40 / aq=1:0.75
Default : Yes
Forced : No
Color range : Limited
Matrix coefficients : BT.709

Audio
ID : 2
Format : AAC
Format/Info : Advanced Audio Codec
Format profile : LC
Codec ID : A_AAC
Duration : 1 h 52 min
Bit rate : 83.1 kb/s
Channel(s) : 1 channel
Channel positions : Front: C
Sampling rate : 48.0 kHz
Frame rate : 46.875 FPS (1024 spf)
Compression mode : Lossy
Delay relative to video : 9 ms
Stream size : 66.9 MiB (6%)
Language : English
Default : Yes
Forced : No


Screenshots:

The T.A.M.I. Show (1964)

The T.A.M.I. Show (1964)

The T.A.M.I. Show (1964)

The T.A.M.I. Show (1964)