The Survivor (1981)

The Survivor (1981)

The Survivor (1981)
BDRip | MKV | AVC, 4130 Kbps | 1280x538 | 23.976 fps | 3.28 GB | Runtime: 98 Min
Audio : English Ac3 640 Kbps | 2 channels | 48 KHz | Subtitle : None
Genre : Horror | Mystery | Thriller

Keller is an experienced pilot whose plane crashes in a field near a town. He ends up being the sole survivor, but he's unable to remember what happened that caused the plane to crash. He also can't explain how come he's the only one who survived without even a scratch while everyone else on board died. A local female psychic, Hobbs, who's been having visions ever since the night of the crash, and Keller's own sense of survivor's guilt convince Keller that he needs to get to the bottom of things. Meanwhile, some of the children killed in the crash begin appearing to some of the locals and an eerie series of strange deaths occurs. Keller and Hobbs approach the local priest, who seem to be the only one in town who believes in Keller's innocence and Hobbs disturbing visions.
IMDB


Video
ID : 1
Format : AVC
Format/Info : Advanced Video Codec
Format profile : High@L4.1
Format settings, CABAC : Yes
Format settings, ReFrames : 5 frames
Codec ID : V_MPEG4/ISO/AVC
Duration : 1h 38mn
Bit rate : 4 130 Kbps
Width : 1 280 pixels
Height : 536 pixels
Display aspect ratio : 2.40:1
Frame rate mode : Constant
Frame rate : 23.976 (24000/1001) fps
Color space : YUV
Chroma subsampling : 4:2:0
Bit depth : 8 bits
Scan type : Progressive
Bits/(Pixel*Frame) : 0.251
Stream size : 2.84 GiB (87%)
Writing library : x264 core 150 r2833kMod df79067
Encoding settings : cabac=1 / ref=5 / deblock=1:0:0 / analyse=0x3:0x133 / me=umh / subme=8 / psy=1 / fade_compensate=0.00 / psy_rd=1.00:0.00 / mixed_ref=1 / me_range=16 / chroma_me=1 / trellis=1 / 8x8dct=1 / cqm=0 / deadzone=21,11 / fast_pskip=0 / chroma_qp_offset=-2 / threads=17 / lookahead_threads=2 / sliced_threads=0 / nr=0 / decimate=1 / interlaced=0 / bluray_compat=0 / constrained_intra=0 / bframes=3 / b_pyramid=2 / b_adapt=1 / b_bias=0 / direct=1 / weightb=1 / open_gop=0 / weightp=2 / keyint=250 / keyint_min=23 / scenecut=40 / intra_refresh=0 / rc_lookahead=40 / rc=2pass / mbtree=1 / bitrate=4130 / ratetol=1.0 / qcomp=0.60 / qpmin=0 / qpmax=69 / qpstep=4 / cplxblur=20.0 / qblur=0.5 / ip_ratio=1.40 / aq=1:1.00
Language : English
Default : Yes
Forced : No

Audio
ID : 2
Format : AC-3
Format/Info : Audio Coding 3
Mode extension : CM (complete main)
Format settings, Endianness : Big
Codec ID : A_AC3
Duration : 1h 38mn
Bit rate mode : Constant
Bit rate : 640 Kbps
Channel(s) : 2 channels
Channel positions : Front: L R
Sampling rate : 48.0 KHz
Frame rate : 31.250 fps (1536 spf)
Compression mode : Lossy
Stream size : 450 MiB (13%)
Title : English
Language : English
Default : Yes
Forced : No


The Survivor (1981)