The Spanish Civil War 1936 - 1939 (1983)

The Spanish Civil War 1936 - 1939 (1983)

The Spanish Civil War 1936 - 1939 (1983)
PDTV | 512 x 384 | .AVI/XviD @ 1766 Kbps | 6x~52mn | 4.09 GB
Audio: English MP3 102 Kbps, 2 channels | Subs: None
Genre: Documentary, History, War

Six-part Channel Four television series on the history of the Spanish Civil War, using stills, interviews and copious archive film from British and Spanish sources.

General
Complete name : The.Spanish.Civil.War.1of6.Prelude.to.Tragedy.avi
Format : AVI
Format/Info : Audio Video Interleave
File size : 699 MiB
Duration : 51 min 59 s
Overall bit rate mode : Variable
Overall bit rate : 1 881 kb/s
Writing application : VirtualDubMod 1.5.4.1 (build 2178/release)
Writing library : VirtualDubMod build 2178/release

Video
ID : 0
Format : MPEG-4 Visual
Format profile : Advanced Simple@L5
Format settings, BVOP : 1
Format settings, QPel : No
Format settings, GMC : No warppoints
Format settings, Matrix : Custom
Codec ID : XVID
Codec ID/Hint : XviD
Duration : 51 min 59 s
Bit rate : 1 766 kb/s
Width : 512 pixels
Height : 384 pixels
Display aspect ratio : 4:3
Frame rate : 25.000 FPS
Color space : YUV
Chroma subsampling : 4:2:0
Bit depth : 8 bits
Scan type : Progressive
Compression mode : Lossy
Bits/(Pixel*Frame) : 0.359
Stream size : 656 MiB (94%)
Writing library : XviD 1.1.2 (UTC 2006-11-01)

Audio
ID : 1
Format : MPEG Audio
Format version : Version 1
Format profile : Layer 3
Mode : Joint stereo
Mode extension : MS Stereo
Codec ID : 55
Codec ID/Hint : MP3
Duration : 51 min 59 s
Bit rate mode : Variable
Bit rate : 102 kb/s
Nominal bit rate : 128 kb/s
Channel(s) : 2 channels
Sampling rate : 48.0 kHz
Compression mode : Lossy
Stream size : 38.0 MiB (5%)
Alignment : Aligned on interleaves
Interleave, duration : 24 ms (0.60 video frame)
Interleave, preload duration : 491 ms
Writing library : LAME3.97
Encoding settings : -m j -V 4 -q 2 -lowpass 17 –abr 128
Language : English
Screenshots

The Spanish Civil War 1936 - 1939 (1983)

The Spanish Civil War 1936 - 1939 (1983)

Welcome to my blog - daily update!