The Sorrow and the Pity / Le chagrin et la pitié (1969)

The Sorrow and the Pity / Le chagrin et la pitié (1969)

The Sorrow and the Pity / Le chagrin et la pitié (1969)
BRRip | 720 x 430 | .AVI/XviD @ 1599 Kbps | 2x~2 h | 3.28 GB
Audio: French MP3 192 Kbps, 2 channels | Subs: English
Genre: Documentary, History, War

From 1940 to 1944, France's Vichy government collaborated with Nazi Germany. Marcel Ophüls mixes archival footage with 1969 interviews of a German officer and of collaborators and resistance fighters from Clermont-Ferrand. They comment on the nature, details and reasons for the collaboration, from anti-Semitism, xenophobia, and fear of Bolsheviks, to simple caution. Part one, "The Collapse," includes an extended interview with Pierre Mendès-France, jailed for anti-Vichy action and later France's Prime Minister. At the heart of part two, "The Choice," is an interview with Christian de la Mazière, one of 7,000 French youth to fight on the eastern front wearing German uniforms.
Director: Marcel Ophüls
Writers: André Harris, Marcel Ophüls
Stars: Georges Bidault, Matthäus Bleibinger, Charles Braun

More info: IMDB

also You can look my other last: World War II

General
Complete name : The.Sorrow.And.The.Pity.1969.Part.1.avi
Format : AVI
Format/Info : Audio Video Interleave
Format profile : OpenDML
File size : 1.60 GiB
Duration : 2 h 6 min
Overall bit rate : 1 805 kb/s
Movie name : - The.Sorrow.And.The.Pity.1969.Part.1.BRRip.XviD.MP3-
Writing application : Lavf56.40.101
Comment : - The.Sorrow.And.The.Pity.1969.Part.1.BRRip.XviD.MP3-

Video
ID : 0
Format : MPEG-4 Visual
Format profile : Simple@L5
Format settings, BVOP : No
Format settings, QPel : No
Format settings, GMC : No warppoints
Format settings, Matrix : Default (H.263)
Codec ID : XVID
Codec ID/Hint : XviD
Duration : 2 h 6 min
Bit rate : 1 599 kb/s
Width : 720 pixels
Height : 430 pixels
Display aspect ratio : 5:3
Frame rate : 24.000 FPS
Color space : YUV
Chroma subsampling : 4:2:0
Bit depth : 8 bits
Scan type : Progressive
Compression mode : Lossy
Bits/(Pixel*Frame) : 0.215
Stream size : 1.42 GiB (89%)
Title : - The.Sorrow.And.The.Pity.1969.Part.1.BRRip.XviD.MP3-
Writing library : Lavc56.60.100

Audio
ID : 1
Format : MPEG Audio
Format version : Version 1
Format profile : Layer 3
Mode : Joint stereo
Mode extension : MS Stereo
Codec ID : 55
Codec ID/Hint : MP3
Duration : 2 h 6 min
Bit rate mode : Constant
Bit rate : 192 kb/s
Channel(s) : 2 channels
Sampling rate : 48.0 kHz
Compression mode : Lossy
Stream size : 174 MiB (11%)
Alignment : Aligned on interleaves
Interleave, duration : 24 ms (0.58 video frame)
Interleave, preload duration : 24 ms
Title : - The.Sorrow.And.The.Pity.1969.Part.1.BRRip.XviD.MP3-
Writing library : LAME3.99.5
Screenshots

The Sorrow and the Pity / Le chagrin et la pitié (1969)

The Sorrow and the Pity / Le chagrin et la pitié (1969)

The Sorrow and the Pity / Le chagrin et la pitié (1969)

Welcome to my blog - daily update!

The Sorrow and the Pity / Le chagrin et la pitié (1969)