The Private Life of Henry VIII. (1933)

The Private Life of Henry VIII. (1933)

The Private Life of Henry VIII. (1933)
WEBRip 1080p | MP4 | 1 h 34 min | 1.80 GB | 1440x1080 | AVC@2500 kb/s | English AAC@224 kb/s, 2 ch
WEB-DL 1080p | MKV | 1 h 34 min | 9.92 GB | 1440x1080 | AVC@14.8 Mb/s | English AC3@224 kb/s, 2 ch
Subs: English
Genre: Biography, Comedy, Drama, History, Romance

King Henry VIII marries five more times after his divorce from his first wife Catherine of Aragon.



General
The.Private.Life.Of.Henry.VIII.1933.1080p.WEBRip.x264.mp4
Format : MPEG-4
Format profile : Base Media
Codec ID : isom (isom/iso2/avc1/mp41)
File size : 1.80 GB
Duration : 1 h 34 min
Overall bit rate : 2729 kb/s
Encoded date : UTC 2021-08-09 19:43:15
Tagged date : UTC 2021-08-09 19:43:15
Writing application : Lavf58.20.100

Video
ID : 1
Format : AVC
Format/Info : Advanced Video Codec
Format profile : High@L4.1
Format settings, CABAC : Yes
Format settings, ReFrames : 4 frames
Codec ID : avc1
Codec ID/Info : Advanced Video Coding
Duration : 1 h 34 min
Bit rate : 2500 kb/s
Width : 1440 pixels
Height : 1080 pixels
Display aspect ratio : 4:3
Frame rate mode : Constant
Frame rate : 23.976 (23976/1000) FPS
Color space : YUV
Chroma subsampling : 4:2:0
Bit depth : 8 bits
Scan type : Progressive
Bits/(Pixel*Frame) : 0.067
Stream size : 1.65 GB (92%)
Writing library : x264 core 152 r2851M ba24899
Encoding settings : cabac=1 / ref=4 / deblock=1:-1:-1 / analyse=0x3:0x113 / me=umh / subme=9 / psy=1 / psy_rd=1.00:0.15 / mixed_ref=1 / me_range=24 / chroma_me=1 / trellis=2 / 8x8dct=1 / cqm=0 / deadzone=21,11 / fast_pskip=1 / chroma_qp_offset=-3 / threads=16 / lookahead_threads=4 / sliced_threads=0 / nr=0 / decimate=1 / interlaced=0 / bluray_compat=0 / constrained_intra=0 / bframes=3 / b_pyramid=2 / b_adapt=2 / b_bias=0 / direct=3 / weightb=1 / open_gop=0 / weightp=2 / keyint=250 / keyint_min=25 / scenecut=40 / intra_refresh=0 / rc_lookahead=50 / rc=2pass / mbtree=1 / bitrate=2500 / ratetol=1.0 / qcomp=0.60 / qpmin=0 / qpmax=69 / qpstep=4 / cplxblur=20.0 / qblur=0.5 / vbv_maxrate=31250 / vbv_bufsize=31250 / nal_hrd=none / filler=0 / ip_ratio=1.40 / aq=3:1.00
Encoded date : UTC 2021-08-09 19:43:15
Tagged date : UTC 2021-08-09 19:43:15

Audio
ID : 2
Format : AAC
Format/Info : Advanced Audio Codec
Format profile : LC
Codec ID : 40
Duration : 1 h 34 min
Duration_LastFrame : -11 ms
Bit rate mode : Constant
Bit rate : 224 kb/s
Channel(s) : 2 channels
Channel positions : Front: L R
Sampling rate : 48.0 kHz
Frame rate : 46.875 FPS (1024 spf)
Compression mode : Lossy
Stream size : 151 MB (8%)
Language : English
Default : Yes
Alternate group : 1
Encoded date : UTC 2021-08-09 19:43:15
Tagged date : UTC 2021-08-09 19:43:15


General
The.Private.Life.Of.Henry.VIII.1933.1080p.WEB-DL.DD2.0.H.264-SbR.mkv
Format : Matroska
Format version : Version 2
File size : 9.92 GB
Duration : 1 h 34 min
Overall bit rate mode : Variable
Overall bit rate : 15.1 Mb/s
Encoded date : UTC 2017-11-09 20:59:53
Writing application : mkvmerge v17.0.0 ('Be Ur Friend') 64-bit
Writing library : libebml v1.3.5 + libmatroska v1.4.8
Cover : Yes
Attachments : cover.jpg

Video
ID : 1
Format : AVC
Format/Info : Advanced Video Codec
Format profile : High@L4
Format settings, CABAC : Yes
Format settings, ReFrames : 4 frames
Codec ID : V_MPEG4/ISO/AVC
Duration : 1 h 34 min
Bit rate mode : Variable
Bit rate : 14.8 Mb/s
Maximum bit rate : 15.0 Mb/s
Width : 1440 pixels
Height : 1080 pixels
Display aspect ratio : 4:3
Frame rate mode : Constant
Frame rate : 23.976 (24000/1001) FPS
Color space : YUV
Chroma subsampling : 4:2:0
Bit depth : 8 bits
Scan type : Progressive
Bits/(Pixel*Frame) : 0.398
Stream size : 9.77 GB (98%)
Writing library : x264 core 148 r2623 d5b2374
Encoding settings : cabac=1 / ref=4 / deblock=1:-1:-1 / analyse=0x3:0x133 / me=umh / subme=9 / psy=1 / psy_rd=1.00:0.15 / mixed_ref=1 / me_range=24 / chroma_me=1 / trellis=2 / 8x8dct=1 / cqm=0 / deadzone=21,11 / fast_pskip=1 / chroma_qp_offset=-3 / threads=34 / lookahead_threads=5 / sliced_threads=0 / nr=150 / decimate=1 / interlaced=0 / bluray_compat=0 / constrained_intra=0 / bframes=8 / b_pyramid=2 / b_adapt=2 / b_bias=0 / direct=3 / weightb=1 / open_gop=0 / weightp=2 / keyint=120 / keyint_min=61 / scenecut=0 / intra_refresh=0 / rc_lookahead=120 / rc=crf / mbtree=1 / crf=18.0 / qcomp=0.60 / qpmin=0 / qpmax=69 / qpstep=4 / vbv_maxrate=15000 / vbv_bufsize=31250 / crf_max=0.0 / nal_hrd=vbr / filler=0 / ip_ratio=1.40 / aq=3:1.00
Language : English
Default : Yes
Forced : No
Color range : Limited
Color primaries : BT.709
Transfer characteristics : BT.709
Matrix coefficients : BT.709

Audio
ID : 2
Format : E-AC-3
Format/Info : Enhanced Audio Coding 3
Format settings, Endianness : Big
Codec ID : A_EAC3
Duration : 1 h 34 min
Bit rate mode : Constant
Bit rate : 224 kb/s
Channel(s) : 2 channels
Channel positions : Front: L R
Sampling rate : 48.0 kHz
Frame rate : 187.500 FPS (256 spf)
Compression mode : Lossy
Stream size : 151 MB (1%)
Language : English
Default : Yes
Forced : No

Text #1
ID : 3
Format : UTF-8
Codec ID : S_TEXT/UTF8
Codec ID/Info : UTF-8 Plain Text
Duration : 1 h 30 min
Bit rate : 51 b/s
Count of elements : 976
Stream size : 33.8 KiB (0%)
Language : English
Default : No
Forced : No

Text #2
ID : 4
Format : UTF-8
Codec ID : S_TEXT/UTF8
Codec ID/Info : UTF-8 Plain Text
Duration : 1 h 33 min
Bit rate : 55 b/s
Count of elements : 1094
Stream size : 37.7 KiB (0%)
Title : SDH
Language : English
Default : No
Forced : No

Menu
00:00:00.000 : en:01. Chop and Change
00:09:58.061 : en:02. New Queen
00:19:45.982 : en:03. "It's a Boy!"
00:24:39.243 : en:04. Marry Again
00:28:14.092 : en:05. "Alas, What Shall I Do for Love?"
00:36:52.277 : en:06. Anne of Cleves
00:38:59.504 : en:07. Rendezvous
00:46:11.402 : en:08. "There is Always a Way Out"
00:50:24.623 : en:09. Divorce
01:00:26.725 : en:10. An English Girl
01:06:03.228 : en:11. Love Is Everything
01:14:55.561 : en:12. Good-bye?
01:21:18.243 : en:13. Adultery
01:28:55.099 : en:14. The Sixth Wife



WEBRip 1080p Screenshots

8819786
8819787
8819788

WEB-DL 1080p Screenshots

The Private Life of Henry VIII. (1933)

The Private Life of Henry VIII. (1933)

The Private Life of Henry VIII. (1933)

The Private Life of Henry VIII. (1933)


Come Visit My Blog (•‿•)