The Old Maid (1939)

The Old Maid (1939)

The Old Maid (1939)
WEB-DL 1080p | MKV | 1 h 34 min | 9.55 GB | 1440x1080 | AVC@14.2 Mb/s
English AC3@192 kb/s, 1 ch
Subs: English
Genre: Drama

The arrival of an ex-lover on a young woman's wedding day sets in motion a chain of events which will alter her and her cousin's lives forever.



General
The.Old.Maid.1939.1080p.WEB-DL.DD1.0.H.264-SbR.mkv
Format : Matroska
Format version : Version 2
File size : 9.55 GB
Duration : 1 h 34 min
Overall bit rate mode : Variable
Overall bit rate : 14.4 Mb/s
Encoded date : UTC 2017-11-11 07:28:18
Writing application : mkvmerge v17.0.0 ('Be Ur Friend') 64-bit
Writing library : libebml v1.3.5 + libmatroska v1.4.8
Cover : Yes
Attachments : cover.jpg

Video
ID : 1
Format : AVC
Format/Info : Advanced Video Codec
Format profile : High@L4
Format settings, CABAC : Yes
Format settings, ReFrames : 4 frames
Codec ID : V_MPEG4/ISO/AVC
Duration : 1 h 34 min
Bit rate mode : Variable
Bit rate : 14.2 Mb/s
Maximum bit rate : 15.0 Mb/s
Width : 1440 pixels
Height : 1080 pixels
Display aspect ratio : 1.370
Original display aspect ratio : 4:3
Frame rate mode : Constant
Frame rate : 23.976 (24000/1001) FPS
Color space : YUV
Chroma subsampling : 4:2:0
Bit depth : 8 bits
Scan type : Progressive
Bits/(Pixel*Frame) : 0.382
Stream size : 9.42 GB (99%)
Writing library : x264 core 148 r2623 d5b2374
Encoding settings : cabac=1 / ref=4 / deblock=1:-1:-1 / analyse=0x3:0x133 / me=umh / subme=9 / psy=1 / psy_rd=1.00:0.15 / mixed_ref=1 / me_range=24 / chroma_me=1 / trellis=2 / 8x8dct=1 / cqm=0 / deadzone=21,11 / fast_pskip=1 / chroma_qp_offset=-3 / threads=34 / lookahead_threads=5 / sliced_threads=0 / nr=150 / decimate=1 / interlaced=0 / bluray_compat=0 / constrained_intra=0 / bframes=8 / b_pyramid=2 / b_adapt=2 / b_bias=0 / direct=3 / weightb=1 / open_gop=0 / weightp=2 / keyint=120 / keyint_min=61 / scenecut=0 / intra_refresh=0 / rc_lookahead=120 / rc=crf / mbtree=1 / crf=18.0 / qcomp=0.60 / qpmin=0 / qpmax=69 / qpstep=4 / vbv_maxrate=15000 / vbv_bufsize=31250 / crf_max=0.0 / nal_hrd=vbr / filler=0 / ip_ratio=1.40 / aq=3:1.00
Language : English
Default : Yes
Forced : No
Color range : Limited
Color primaries : BT.709
Transfer characteristics : BT.709
Matrix coefficients : BT.709

Audio
ID : 2
Format : AC-3
Format/Info : Audio Coding 3
Mode extension : CM (complete main)
Format settings, Endianness : Big
Codec ID : A_AC3
Duration : 1 h 34 min
Bit rate mode : Constant
Bit rate : 192 kb/s
Channel(s) : 1 channel
Channel positions : Front: C
Sampling rate : 48.0 kHz
Frame rate : 31.250 FPS (1536 spf)
Bit depth : 16 bits
Compression mode : Lossy
Stream size : 130 MB (1%)
Language : English
Default : Yes
Forced : No

Text #1
ID : 3
Format : UTF-8
Codec ID : S_TEXT/UTF8
Codec ID/Info : UTF-8 Plain Text
Duration : 1 h 31 min
Bit rate : 86 b/s
Count of elements : 1519
Stream size : 57.9 KiB (0%)
Language : English
Default : No
Forced : No

Text #2
ID : 4
Format : UTF-8
Codec ID : S_TEXT/UTF8
Codec ID/Info : UTF-8 Plain Text
Duration : 1 h 31 min
Bit rate : 88 b/s
Count of elements : 1552
Stream size : 59.8 KiB (0%)
Title : SDH
Language : English
Default : No
Forced : No

Menu
00:00:00.000 : en:01. Credits
00:01:11.313 : en:02. Delia's Wedding Day
00:06:01.437 : en:03. Unexpected Return
00:10:45.187 : en:04. Something Blue
00:17:09.105 : en:05. So Much Left Unsaid
00:21:41.377 : en:06. Remarkable Occasion
00:25:18.727 : en:07. Curious About Clementina
00:29:14.497 : en:08. Secrets Revealed
00:35:05.147 : en:09. Release from Marriage
00:40:21.997 : en:10. Hard Feelings
00:45:47.823 : en:11. Aunt Charlotte
00:51:44.981 : en:12. Young Delia's Wedding Day
00:56:12.415 : en:13. I Don't Dance
00:59:59.008 : en:14. Defiant Daughter
01:04:29.913 : en:15. I Know Her Better
01:08:53.676 : en:16. Sour Old Maid
01:13:44.334 : en:17. Adopting a New Plan
01:17:27.223 : en:18. Like a Princess
01:21:25.962 : en:19. Heaven Knows What Thoughts
01:23:19.075 : en:20. Just for Tonight
01:26:27.730 : en:21. The Mother She Wants
01:30:36.313 : en:22. Last Kiss Goodbye
01:33:56.546 : en:23. Cast List



WEB-DL 1080p Screenshots

The Old Maid (1939)

The Old Maid (1939)

The Old Maid (1939)

The Old Maid (1939)


Come Visit My Blog (•‿•)