The Memory of Justice (1976)

The Memory of Justice (1976)

The Memory of Justice (1976)
WEBRip | 720 x 400 | .MP4/AVC @ 1100 Kbps | 4 h 41 min | 2.42 GB
Audio: English AAC 128 Kbps, 2 channels | Subs: English
Genre: Documentary, War

Explores the subject of atrocities during wartime, especially during World War II and the Vietnam War.
Director: Marcel Ophüls
Writer: Marcel Ophüls
Stars: Joan Baez, Karl Dönitz, Edgar Faure

More info: IMDB

General
Complete name : The.Memory.of.Justice.1976.mp4
Format : MPEG-4
Format profile : Base Media
Codec ID : isom (isom/iso2/avc1/mp41)
File size : 2.42 GiB
Duration : 4 h 41 min
Overall bit rate : 1 229 kb/s
Movie name : - The.Memory.of.Justice.1976.WEBRip.x264-
Encoded date : UTC 2017-08-12 10:42:34
Tagged date : UTC 2017-08-12 10:42:34
Writing application : Lavf57.71.100
Comment :- The.Memory.of.Justice.1976.WEBRip.x264-

Video
ID : 1
Format : AVC
Format/Info : Advanced Video Codec
Format profile : High@L3.1
Format settings, CABAC : Yes
Format settings, ReFrames : 5 frames
Codec ID : avc1
Codec ID/Info : Advanced Video Coding
Duration : 4 h 41 min
Bit rate : 1 100 kb/s
Width : 720 pixels
Height : 400 pixels
Display aspect ratio : 16:9
Frame rate mode : Constant
Frame rate : 23.976 (24000/1001) FPS
Color space : YUV
Chroma subsampling : 4:2:0
Bit depth : 8 bits
Scan type : Progressive
Bits/(Pixel*Frame) : 0.159
Stream size : 2.15 GiB (89%)
Title : - The.Memory.of.Justice.1976.WEBRip.x264-
Writing library : x264 core 152 r2851M ba24899
Encoding settings : cabac=1 / ref=5 / deblock=1:-1:-1 / analyse=0x3:0x113 / me=umh / subme=9 / psy=1 / psy_rd=1.00:0.15 / mixed_ref=1 / me_range=16 / chroma_me=1 / trellis=2 / 8x8dct=1 / cqm=0 / deadzone=21,11 / fast_pskip=1 / chroma_qp_offset=-3 / threads=12 / lookahead_threads=1 / sliced_threads=0 / nr=0 / decimate=1 / interlaced=0 / bluray_compat=0 / constrained_intra=0 / bframes=3 / b_pyramid=2 / b_adapt=2 / b_bias=0 / direct=3 / weightb=1 / open_gop=0 / weightp=2 / keyint=250 / keyint_min=23 / scenecut=40 / intra_refresh=0 / rc_lookahead=50 / rc=abr / mbtree=1 / bitrate=1100 / ratetol=1.0 / qcomp=0.60 / qpmin=0 / qpmax=69 / qpstep=4 / ip_ratio=1.40 / aq=1:1.00
Encoded date : UTC 2017-08-12 10:42:34
Tagged date : UTC 2017-08-12 10:42:34

Audio
ID : 2
Format : AAC
Format/Info : Advanced Audio Codec
Format profile : LC
Codec ID : 40
Duration : 4 h 41 min
Duration_LastFrame : -11 ms
Bit rate mode : Constant
Bit rate : 128 kb/s
Channel(s) : 2 channels
Channel positions : Front: L R
Sampling rate : 48.0 kHz
Frame rate : 46.875 FPS (1024 spf)
Compression mode : Lossy
Stream size : 258 MiB (10%)
Title : - The.Memory.of.Justice.1976.WEBRip.x264-
Language : English
Default : Yes
Alternate group : 1
Encoded date : UTC 2017-08-12 10:42:34
Tagged date : UTC 2017-08-12 10:42:34
Screenshots

The Memory of Justice (1976)

The Memory of Justice (1976)

The Memory of Justice (1976)

The Memory of Justice (1976)

Welcome to my blog - daily update!

The Memory of Justice (1976)