The Escape Artist (1982)

The Escape Artist (1982)

The Escape Artist (1982)
WEBRip 1080p | MP4 | 1 h 33 min | 1.79 GB | 1920x1080 | AVC@2500 kb/s | English AAC@224 kb/s, 2 ch
WEB-DL 1080p | MKV | 1 h 33 min | 5.65 GB | 1920x1080 | AVC@8217 kb/s | English AC3@384 kb/s, 2 ch
Subs: English, Español
Genre: Comedy, Crime, Drama

Teenager Danny Masters, the son of the late Harry Masters, considered the second best escape artist in history, wants to follow in his father's footsteps, he already a skilled but untested magician. As far as Danny knows, his father died in a dangerous escape routine. Escaping from under his grandmother's roof, Danny, in a step to achieve his goal as they have all his father's old professional paraphernalia, reunites with his Aunt Sibyl and Uncle Burke in the town of Harding where they have a mind-reading act, she who actually can read minds but which only impinges on the smoke and mirrors they've developed with the act itself. In his wanderings around Harding, Danny gets involved with corrupt Stu Quiñones, and indirectly with Stu's equally corrupt father, the town's mayor, Leon Quiñones. This father/son pair no longer associate with each other as although Stu aspires to be as corrupt as his father, Stu's activities are a little too brazen and public for a politician with which to …



General
The.Escape.Artist.1982.1080p.WEBRip.x264.mp4
Format : MPEG-4
Format profile : Base Media
Codec ID : isom (isom/iso2/avc1/mp41)
File size : 1.79 GB
Duration : 1 h 33 min
Overall bit rate : 2729 kb/s
Encoded date : UTC 2021-01-13 15:33:10
Tagged date : UTC 2021-01-13 15:33:10
Writing application : Lavf58.20.100

Video
ID : 1
Format : AVC
Format/Info : Advanced Video Codec
Format profile : High@L4.1
Format settings, CABAC : Yes
Format settings, ReFrames : 4 frames
Codec ID : avc1
Codec ID/Info : Advanced Video Coding
Duration : 1 h 33 min
Bit rate : 2500 kb/s
Width : 1920 pixels
Height : 1080 pixels
Display aspect ratio : 16:9
Frame rate mode : Constant
Frame rate : 23.976 (23976/1000) FPS
Color space : YUV
Chroma subsampling : 4:2:0
Bit depth : 8 bits
Scan type : Progressive
Bits/(Pixel*Frame) : 0.050
Stream size : 1.64 GB (92%)
Writing library : x264 core 152 r2851M ba24899
Encoding settings : cabac=1 / ref=4 / deblock=1:-1:-1 / analyse=0x3:0x113 / me=umh / subme=9 / psy=1 / psy_rd=1.00:0.15 / mixed_ref=1 / me_range=24 / chroma_me=1 / trellis=2 / 8x8dct=1 / cqm=0 / deadzone=21,11 / fast_pskip=1 / chroma_qp_offset=-3 / threads=16 / lookahead_threads=4 / sliced_threads=0 / nr=0 / decimate=1 / interlaced=0 / bluray_compat=0 / constrained_intra=0 / bframes=3 / b_pyramid=2 / b_adapt=2 / b_bias=0 / direct=3 / weightb=1 / open_gop=0 / weightp=2 / keyint=250 / keyint_min=25 / scenecut=40 / intra_refresh=0 / rc_lookahead=50 / rc=2pass / mbtree=1 / bitrate=2500 / ratetol=1.0 / qcomp=0.60 / qpmin=0 / qpmax=69 / qpstep=4 / cplxblur=20.0 / qblur=0.5 / vbv_maxrate=31250 / vbv_bufsize=31250 / nal_hrd=none / filler=0 / ip_ratio=1.40 / aq=3:1.00
Encoded date : UTC 2021-01-13 15:33:10
Tagged date : UTC 2021-01-13 15:33:10

Audio
ID : 2
Format : AAC
Format/Info : Advanced Audio Codec
Format profile : LC
Codec ID : 40
Duration : 1 h 33 min
Bit rate mode : Constant
Bit rate : 224 kb/s
Channel(s) : 2 channels
Channel positions : Front: L R
Sampling rate : 48.0 kHz
Frame rate : 46.875 FPS (1024 spf)
Compression mode : Lossy
Stream size : 151 MB (8%)
Language : English
Default : Yes
Alternate group : 1
Encoded date : UTC 2021-01-13 15:33:10
Tagged date : UTC 2021-01-13 15:33:10


General
The.Escape.Artist.1982.1080p.HMAX.WEB-DL.DD2.0.H.264-PLiSSKEN.mkv
Format : Matroska
Format version : Version 4 / Version 2
File size : 5.65 GB
Duration : 1 h 33 min
Overall bit rate mode : Variable
Overall bit rate : 8604 kb/s
Encoded date : UTC 2021-01-13 03:47:04
Writing application : mkvmerge v51.0.0 ('I Wish') 64-bit
Writing library : libebml v1.4.0 + libmatroska v1.6.2

Video
ID : 1
Format : AVC
Format/Info : Advanced Video Codec
Format profile : High@L4
Format settings, CABAC : Yes
Format settings, ReFrames : 4 frames
Codec ID : V_MPEG4/ISO/AVC
Duration : 1 h 33 min
Bit rate mode : Variable
Bit rate : 8217 kb/s
Maximum bit rate : 12.4 Mb/s
Width : 1920 pixels
Height : 1080 pixels
Display aspect ratio : 16:9
Frame rate mode : Constant
Frame rate : 23.976 (24000/1001) FPS
Color space : YUV
Chroma subsampling : 4:2:0
Bit depth : 8 bits
Scan type : Progressive
Bits/(Pixel*Frame) : 0.165
Stream size : 5.39 GB (96%)
Default : Yes
Forced : No
Color range : Limited
Color primaries : BT.709
Transfer characteristics : BT.709
Matrix coefficients : BT.709

Audio
ID : 2
Format : AC-3
Format/Info : Audio Coding 3
Mode extension : CM (complete main)
Format settings, Endianness : Big
Codec ID : A_AC3
Duration : 1 h 33 min
Bit rate mode : Constant
Bit rate : 384 kb/s
Channel(s) : 2 channels
Channel positions : Front: L R
Sampling rate : 48.0 kHz
Frame rate : 31.250 FPS (1536 spf)
Bit depth : 16 bits
Compression mode : Lossy
Stream size : 258 MB (4%)
Language : English
Default : Yes
Forced : No

Text #1
ID : 3
Format : UTF-8
Codec ID : S_TEXT/UTF8
Codec ID/Info : UTF-8 Plain Text
Duration : 1 h 30 min
Bit rate : 53 b/s
Count of elements : 2119
Stream size : 35.3 KiB (0%)
Language : English
Default : No
Forced : No

Text #2
ID : 4
Format : UTF-8
Codec ID : S_TEXT/UTF8
Codec ID/Info : UTF-8 Plain Text
Duration : 1 h 29 min
Bit rate : 41 b/s
Count of elements : 1345
Stream size : 27.3 KiB (0%)
Language : Spanish
Default : No
Forced : No



WEBRip 1080p Screenshots

The Escape Artist (1982)

The Escape Artist (1982)

The Escape Artist (1982)

The Escape Artist (1982)


WEB-DL 1080p Screenshots

The Escape Artist (1982)

The Escape Artist (1982)

The Escape Artist (1982)

The Escape Artist (1982)


Come Visit My Blog (•‿•)