The Curse of Frankenstein (1957)

The Curse of Frankenstein (1957)

The Curse of Frankenstein (1957)
WEBRip | MKV | AVC, 13.4 Mbps | 1920x1080 | 23.976 fps | 7.91 GB | Runtime: 83 Min
Audio : English Ac3 224 Kbps | 2 channels | 48 KHz | Subtitle : English
Genre : Horror | Sci-Fi | Thriller

In prison and awaiting execution, Dr. Victor Frankenstein recounts to a priest what led him to his current circumstance. He inherited his family's wealth after the death of his mother when he was still only a young man. He hired Paul Krempe as his tutor and he immediately developed an interest in medical science. After several years, he and Krempe became equals and he developed an interest in the origins and nature of life. After successfully re-animating a dead dog, Victor sets about constructing a man using body parts he acquires for the purpose including the hands of a pianist and the brain of a renowned scholar. As Frankenstein's excesses continue to grow, Krempe is not only repulsed by what his friend has done but is concerned for the safety of the beautiful Elizabeth, Victor's cousin and fiancée who has come to live with them. His experiments lead to tragedy and his eventual demise.
IMDB


Video
ID : 1
Format : AVC
Format/Info : Advanced Video Codec
Format profile : High@L4
Format settings, CABAC : Yes
Format settings, ReFrames : 4 frames
Codec ID : V_MPEG4/ISO/AVC
Duration : 1h 23mn
Bit rate mode : Variable
Bit rate : 13.4 Mbps
Maximum bit rate : 15.0 Mbps
Width : 1 920 pixels
Height : 1 080 pixels
Display aspect ratio : 16:9
Frame rate mode : Constant
Frame rate : 23.976 (24000/1001) fps
Color space : YUV
Chroma subsampling : 4:2:0
Bit depth : 8 bits
Scan type : Progressive
Bits/(Pixel*Frame) : 0.270
Stream size : 7.78 GiB (98%)
Title : The Curse of Frankenstein
Writing library : x264 core 148 r2623 d5b2374
Encoding settings : cabac=1 / ref=4 / deblock=1:-1:-1 / analyse=0x3:0x133 / me=umh / subme=9 / psy=1 / psy_rd=1.00:0.15 / mixed_ref=1 / me_range=24 / chroma_me=1 / trellis=2 / 8x8dct=1 / cqm=0 / deadzone=21,11 / fast_pskip=1 / chroma_qp_offset=-3 / threads=34 / lookahead_threads=5 / sliced_threads=0 / nr=150 / decimate=1 / interlaced=0 / bluray_compat=0 / constrained_intra=0 / bframes=8 / b_pyramid=2 / b_adapt=2 / b_bias=0 / direct=3 / weightb=1 / open_gop=0 / weightp=2 / keyint=120 / keyint_min=61 / scenecut=0 / intra_refresh=0 / rc_lookahead=120 / rc=crf / mbtree=1 / crf=18.0 / qcomp=0.60 / qpmin=0 / qpmax=69 / qpstep=4 / vbv_maxrate=15000 / vbv_bufsize=31250 / crf_max=0.0 / nal_hrd=vbr / filler=0 / ip_ratio=1.40 / aq=3:1.00
Default : Yes
Forced : No
Color range : Limited
Color primaries : BT.709
Transfer characteristics : BT.709
Matrix coefficients : BT.709

Audio
ID : 2
Format : E-AC-3
Format/Info : Audio Coding 3
Format settings, Endianness : Big
Codec ID : A_EAC3
Duration : 1h 23mn
Bit rate mode : Constant
Bit rate : 224 Kbps
Channel(s) : 2 channels
Channel positions : Front: L R
Sampling rate : 48.0 KHz
Frame rate : 187.500 fps (256 spf)
Compression mode : Lossy
Stream size : 133 MiB (2%)
Title : English
Language : English
Default : Yes
Forced : No

Text
ID : 3
Format : UTF-8
Codec ID : S_TEXT/UTF8
Codec ID/Info : UTF-8 Plain Text
Duration : 1h 20mn
Bit rate : 56 bps
Count of elements : 1137
Stream size : 33.2 KiB (0%)
Title : English
Language : English
Default : No
Forced : No


The Curse of Frankenstein (1957)