The Big T.N.T. Show (1966)

The Big T.N.T. Show (1966)

The Big T.N.T. Show (1966)
720p BluRay | 1280 x 720 | .MKV/AVC @ 4445 Kbps | 1 h 52 min | 4.36 GB
Audio: English FLAC 1104 Kbps, 2 channels | Subs: None
Genre: Documentary, Music

Live performances by some of the top rock-and-roll acts of the mid 60s. Includes Ray Charles, The Byrds, Joan Baez, Ike and Tina Turner, Donovan, The Lovin' Spoonful, and several more.
Director: Larry Peerce
Stars: Joan Baez, Gene Clark, Mike Clarke

More info: IMDB

also You can look my other last: Music-posts

General
Unique ID : 232597357139103426741273300153078499830 (0xAEFC9F1B46BAEAD1BFC2477D8701C9F6)
Complete name : The.Big.T.N.T.Show.1966.mkv
Format : Matroska
Format version : Version 4 / Version 2
File size : 4.36 GiB
Duration : 1 h 52 min
Overall bit rate mode : Variable
Overall bit rate : 5 551 kb/s
Encoded date : UTC 2017-07-09 21:33:37
Writing application : mkvmerge v13.0.0 ('The Juggler') 64bit
Writing library : libebml v1.3.4 + libmatroska v1.4.5

Video
ID : 1
Format : AVC
Format/Info : Advanced Video Codec
Format profile : High@L4.1
Format settings, CABAC : Yes
Format settings, ReFrames : 5 frames
Codec ID : V_MPEG4/ISO/AVC
Duration : 1 h 52 min
Bit rate : 4 445 kb/s
Width : 1 280 pixels
Height : 720 pixels
Display aspect ratio : 16:9
Frame rate mode : Constant
Frame rate : 23.976 (24000/1001) FPS
Color space : YUV
Chroma subsampling : 4:2:0
Bit depth : 8 bits
Scan type : Progressive
Bits/(Pixel*Frame) : 0.201
Stream size : 3.50 GiB (80%)
Writing library : x264 core 152 r2851 ba24899
Encoding settings : cabac=1 / ref=5 / deblock=1:-3:-3 / analyse=0x3:0x113 / me=umh / subme=8 / psy=1 / psy_rd=1.00:0.25 / mixed_ref=1 / me_range=24 / chroma_me=1 / trellis=1 / 8x8dct=1 / cqm=0 / deadzone=21,11 / fast_pskip=1 / chroma_qp_offset=-4 / threads=22 / lookahead_threads=3 / sliced_threads=0 / nr=0 / decimate=1 / interlaced=0 / bluray_compat=0 / constrained_intra=0 / bframes=3 / b_pyramid=2 / b_adapt=1 / b_bias=0 / direct=3 / weightb=1 / open_gop=0 / weightp=2 / keyint=240 / keyint_min=24 / scenecut=40 / intra_refresh=0 / rc_lookahead=50 / rc=2pass / mbtree=1 / bitrate=4445 / ratetol=1.0 / qcomp=0.60 / qpmin=0 / qpmax=69 / qpstep=4 / cplxblur=20.0 / qblur=0.5 / ip_ratio=1.40 / aq=1:0.75
Default : Yes
Forced : No

Audio
ID : 2
Format : FLAC
Format/Info : Free Lossless Audio Codec
Codec ID : A_FLAC
Duration : 1 h 52 min
Bit rate mode : Variable
Bit rate : 1 104 kb/s
Channel(s) : 2 channels
Channel positions : Front: L R
Sampling rate : 48.0 kHz
Frame rate : 11.719 FPS (4096 spf)
Bit depth : 24 bits
Stream size : 889 MiB (20%)
Writing library : libFLAC 1.2.1 (UTC 2007-09-17)
Language : English
Default : Yes
Forced : No

Menu
00:00:00.000 : en:00:00:00.000
00:04:53.710 : en:00:04:53.710
00:06:44.988 : en:00:06:44.988
00:07:26.947 : en:00:07:26.947
00:08:51.740 : en:00:08:51.740
00:11:22.932 : en:00:11:22.932
00:13:29.100 : en:00:13:29.100
00:14:37.585 : en:00:14:37.585
00:15:46.320 : en:00:15:46.320
00:16:56.349 : en:00:16:56.349
00:18:35.615 : en:00:18:35.615
00:20:41.574 : en:00:20:41.574
00:24:29.218 : en:00:24:29.218
00:29:28.475 : en:00:29:28.475
00:30:41.423 : en:00:30:41.423
00:32:07.175 : en:00:32:07.175
00:33:48.151 : en:00:33:48.151
00:36:31.481 : en:00:36:31.481
00:38:10.747 : en:00:38:10.747
00:40:08.740 : en:00:40:08.740
00:42:39.265 : en:00:42:39.265
00:44:55.693 : en:00:44:55.693
00:46:08.057 : en:00:46:08.057
00:47:03.487 : en:00:47:03.487
00:49:39.518 : en:00:49:39.518
00:51:56.155 : en:00:51:56.155
00:54:28.932 : en:00:54:28.932
00:56:34.224 : en:00:56:34.224
00:58:58.618 : en:00:58:58.618
01:00:57.654 : en:01:00:57.654
01:02:50.892 : en:01:02:50.892
01:04:21.691 : en:01:04:21.691
01:05:21.376 : en:01:05:21.376
01:07:22.163 : en:01:07:22.163
01:08:36.904 : en:01:08:36.904
01:10:04.117 : en:01:10:04.117
01:11:54.936 : en:01:11:54.936
01:14:43.771 : en:01:14:43.771
01:17:31.939 : en:01:17:31.939
01:20:42.212 : en:01:20:42.212
01:24:12.923 : en:01:24:12.923
01:30:28.173 : en:01:30:28.173
01:36:01.214 : en:01:36:01.214
01:38:22.647 : en:01:38:22.647
01:40:59.929 : en:01:40:59.929
01:43:39.213 : en:01:43:39.213
01:46:54.450 : en:01:46:54.450
01:50:07.976 : en:01:50:07.976
Screenshots

The Big T.N.T. Show (1966)

The Big T.N.T. Show (1966)

The Big T.N.T. Show (1966)

The Big T.N.T. Show (1966)

Welcome to my blog - daily update!

The Big T.N.T. Show (1966)