The All Girl Bands (1988)

The All Girl Bands (1988)

The All Girl Bands (1988)
PDTV | 768 x 576 | .MKV/AVC @ 2752 Kbps | 1 h 1 min | 1.28 GB
Audio: English E-AC-3 224 Kbps, 2 channels | Subs: English
Genre: Documentary

Back in the 1930's, band promoters started an all girl band called Ina Ray Hutton and Her Melodears. Their growing popularity inspired many other all girl bands to form during WWII, such as Rita Rio and Her Mistresses of Rhythm, and the Lorraine Page Orchestra. This documentary is a collection of the three all girl bands' performances.

General
Unique ID : 180026505621183447428758178103110882413 (0x876FD80302779AA1887172CC73F7546D)
Complete name : The.All.Girl.Bands.1988.mkv
Format : Matroska
Format version : Version 4 / Version 2
File size : 1.28 GiB
Duration : 1 h 1 min
Overall bit rate mode : Variable
Overall bit rate : 2 977 kb/s
Movie name : The.All.Girl.Bands.1988.AMZN.WEB-DL.DD2.0.H.264-V3T0
Encoded date : UTC 2017-08-23 10:22:56
Writing application : mkvmerge v15.0.0 ('Duel with the Devil') 64-bit
Writing library : libebml v1.3.5 + libmatroska v1.4.5

Video
ID : 1
Format : AVC
Format/Info : Advanced Video Codec
Format profile : High@L3.1
Format settings, CABAC : Yes
Format settings, ReFrames : 5 frames
Codec ID : V_MPEG4/ISO/AVC
Duration : 1 h 1 min
Bit rate mode : Variable
Bit rate : 2 752 kb/s
Maximum bit rate : 2 995 kb/s
Width : 768 pixels
Height : 576 pixels
Display aspect ratio : 4:3
Frame rate mode : Constant
Frame rate : 25.000 FPS
Color space : YUV
Chroma subsampling : 4:2:0
Bit depth : 8 bits
Scan type : Progressive
Bits/(Pixel*Frame) : 0.249
Stream size : 1.18 GiB (92%)
Title : The.All.Girl.Bands.1988.AMZN.WEB-DL.DDP2.0.H.264-V3T0
Writing library : x264 core 148 r2623 d5b2374
Encoding settings : cabac=1 / ref=5 / deblock=1:-1:-1 / analyse=0x3:0x133 / me=umh / subme=10 / psy=1 / psy_rd=1.00:0.15 / mixed_ref=1 / me_range=24 / chroma_me=1 / trellis=2 / 8x8dct=1 / cqm=0 / deadzone=21,11 / fast_pskip=1 / chroma_qp_offset=-3 / threads=18 / lookahead_threads=3 / sliced_threads=0 / nr=200 / decimate=1 / interlaced=0 / bluray_compat=0 / constrained_intra=0 / bframes=8 / b_pyramid=2 / b_adapt=2 / b_bias=0 / direct=3 / weightb=1 / open_gop=0 / weightp=2 / keyint=125 / keyint_min=63 / scenecut=0 / intra_refresh=0 / rc_lookahead=125 / rc=crf / mbtree=1 / crf=19.0 / qcomp=0.60 / qpmin=0 / qpmax=69 / qpstep=4 / vbv_maxrate=2995 / vbv_bufsize=13000 / crf_max=0.0 / nal_hrd=vbr / filler=0 / ip_ratio=1.40 / aq=3:1.00
Default : Yes
Forced : No
Color range : Limited
Color primaries : BT.709
Transfer characteristics : BT.709
Matrix coefficients : BT.709

Audio
ID : 2
Format : E-AC-3
Format/Info : Enhanced Audio Coding 3
Format settings, Endianness : Big
Codec ID : A_EAC3
Duration : 1 h 1 min
Bit rate mode : Constant
Bit rate : 224 kb/s
Channel(s) : 2 channels
Channel positions : Front: L R
Sampling rate : 48.0 kHz
Frame rate : 187.500 FPS (256 spf)
Compression mode : Lossy
Stream size : 98.3 MiB (8%)
Title : English
Language : English
Service kind : Complete Main
Default : Yes
Forced : No

Text
ID : 3
Format : UTF-8
Codec ID : S_TEXT/UTF8
Codec ID/Info : UTF-8 Plain Text
Duration : 58 min 42 s
Bit rate : 6 b/s
Count of elements : 77
Stream size : 2.98 KiB (0%)
Title : SDH
Language : English
Default : No
Forced : No
Screenshots

The All Girl Bands (1988)

The All Girl Bands (1988)

The All Girl Bands (1988)

Welcome to my blog - daily update!