The Wild Bunch (1969)

The Wild Bunch (1969)

The Wild Bunch (1969)
BDRip | MKV | 1920x792 | English | H265 @ 2520 kbps | AC-3 @ 448 kbps | 2 h 24 min | 3.02 GiB
Subtitles: English
Genre: Adventure, Western

Aging outlaw Pike Bishop (William Holden) prepares to retire after one final robbery. Joined by his gang, which includes Dutch Engstrom (Ernest Borgnine) and brothers Lyle (Warren Oates) and Tector Gorch (Ben Johnson), Bishop discovers the heist is a setup orchestrated in part by his old partner, Deke Thornton (Robert Ryan). As the remaining gang takes refuge in Mexican territory, Thornton trails them, resulting in fierce gunfights with plenty of casualties

550a71c5490d4454ab445ccce25a131d.mkv (3.0 GB)



General
Unique ID : 196034175580378015505944640074985156569 (0x937ACF133DD0DDCAB17543B507BAAFD9)
Complete name : ./550a71c5490d4454ab445ccce25a131d.mkv
Format : Matroska
Format version : Version 2
File size : 3.02 GiB
Duration : 2 h 24 min
Overall bit rate : 2 983 kb/s
Movie name : The Wild Bunch 1969 DirCut BluRay 10Bit 1080p DD5.1 H265-d3g
Encoded date : UTC 2018-03-13 09:14:25
Writing application : DVDFab 10.0.8.4
Writing library : libebml v1.3.4 + libmatroska v1.4.5

Video
ID : 1
Format : HEVC
Format/Info : High Efficiency Video Coding
Format profile : Main 10@L4@Main
Codec ID : V_MPEGH/ISO/HEVC
Duration : 2 h 24 min
Bit rate : 2 521 kb/s
Width : 1 920 pixels
Height : 792 pixels
Display aspect ratio : 2.40:1
Frame rate mode : Constant
Frame rate : 23.976 (24000/1001) FPS
Color space : YUV
Chroma subsampling : 4:2:0
Bit depth : 10 bits
Bits/(Pixel*Frame) : 0.069
Stream size : 2.55 GiB (84%)
Default : Yes
Forced : No
Color range : Limited
Color primaries : BT.709
Transfer characteristics : BT.709
Matrix coefficients : BT.709

Audio
ID : 2
Format : AC-3
Format/Info : Audio Coding 3
Format settings, Endianness : Big
Codec ID : A_AC3
Duration : 2 h 24 min
Bit rate mode : Constant
Bit rate : 448 kb/s
Channel(s) : 6 channels
Channel positions : Front: L C R, Side: L R, LFE
Sampling rate : 48.0 kHz
Frame rate : 31.250 FPS (1536 SPF)
Bit depth : 16 bits
Compression mode : Lossy
Stream size : 464 MiB (15%)
Language : English
Service kind : Complete Main
Default : Yes
Forced : No

Text #1
ID : 3
Format : VobSub
Codec ID : S_VOBSUB
Codec ID/Info : Picture based subtitle format used on DVDs
Duration : 2 h 20 min
Bit rate : 5 856 b/s
Count of elements : 879
Stream size : 5.89 MiB (0%)
Language : English
Default : No
Forced : No

Text #2
ID : 4
Format : VobSub
Codec ID : S_VOBSUB
Codec ID/Info : Picture based subtitle format used on DVDs
Duration : 2 h 22 min
Bit rate : 7 252 b/s
Count of elements : 1160
Stream size : 7.39 MiB (0%)
Language : English
Default : No
Forced : No

Menu
00:00:00.000 : en:(01)00:00:00:000
00:06:32.767 : en:(02)00:06:32:767
00:10:08.566 : en:(03)00:10:08:566
00:14:28.325 : en:(04)00:14:28:325
00:15:25.132 : en:(05)00:15:25:132
00:18:15.260 : en:(06)00:18:15:260
00:20:13.837 : en:(07)00:20:13:837
00:22:41.234 : en:(08)00:22:41:234
00:23:34.579 : en:(09)00:23:34:579
00:31:02.610 : en:(10)00:31:02:610
00:34:16.012 : en:(11)00:34:16:012
00:36:34.442 : en:(12)00:36:34:442
00:41:44.335 : en:(13)00:41:44:335
00:42:52.152 : en:(14)00:42:52:152
00:48:12.097 : en:(15)00:48:12:097
00:50:17.848 : en:(16)00:50:17:848
00:52:52.294 : en:(17)00:52:52:294
00:59:42.579 : en:(18)00:59:42:579
01:03:45.488 : en:(19)01:03:45:488
01:09:22.575 : en:(20)01:09:22:575
01:11:56.645 : en:(21)01:11:56:645
01:17:12.169 : en:(22)01:17:12:169
01:21:45.775 : en:(23)01:21:45:775
01:24:24.267 : en:(24)01:24:24:267
01:27:23.029 : en:(25)01:27:23:029
01:28:27.760 : en:(26)01:28:27:760
01:32:02.600 : en:(27)01:32:02:600
01:35:19.922 : en:(28)01:35:19:922
01:36:50.095 : en:(29)01:36:50:095
01:41:18.572 : en:(30)01:41:18:572
01:46:22.000 : en:(31)01:46:22:000
01:49:07.374 : en:(32)01:49:07:374
01:49:56.506 : en:(33)01:49:56:506
01:52:20.650 : en:(34)01:52:20:650
01:55:32.967 : en:(35)01:55:32:967
02:00:10.995 : en:(36)02:00:10:995
02:04:09.108 : en:(37)02:04:09:108
02:08:16.271 : en:(38)02:08:16:271
02:10:41.750 : en:(39)02:10:41:750
02:12:24.394 : en:(40)02:12:24:394
02:13:35.590 : en:(41)02:13:35:590
02:14:53.877 : en:(42)02:14:53:877
02:17:04.049 : en:(43)02:17:04:049
02:19:13.511 : en:(44)02:19:13:511
02:21:17.635 : en:(45)02:21:17:635
02:22:35.088 : en:(46)02:22:35:088
02:24:49.555 : en:(47)02:24:49:555





The Wild Bunch (1969)


The Wild Bunch (1969)


The Wild Bunch (1969)


The Wild Bunch (1969)


The Wild Bunch (1969)