The New Kids (1985)

The New Kids (1985)

The New Kids (1985)
BDRip | MKV | 1024x554 | English | H264 @ 4111 kbps | AC-3 @ 192 kbps | 1 h 29 min | 2.69 GiB
Subtitles: English
Genre: Drama, Horror, Thriller

A brother and sister arrive in a small town to help their relatives run an amusement park, and they find the town is terrorized by a local street gang.

bf3ff530c45449b1a04da95a09e21228.mkv (2.7 GB)



General
Unique ID : 196501412548861982145744341073404245166 (0x93D4CBA2E356DA84979214711E6234AE)
Complete name : ./bf3ff530c45449b1a04da95a09e21228.mkv
Format : Matroska
Format version : Version 4 / Version 2
File size : 2.69 GiB
Duration : 1 h 29 min
Overall bit rate : 4 310 kb/s
Encoded date : UTC 2019-09-01 04:12:58
Writing application : mkvmerge v9.5.0 ('Quiet Fire') 64bit
Writing library : libebml v1.3.4 + libmatroska v1.4.5 / Lavf58.20.100

Video
ID : 1
Format : AVC
Format/Info : Advanced Video Codec
Format profile : High@L4.1
Format settings : CABAC / 9 Ref Frames
Format settings, CABAC : Yes
Format settings, RefFrames : 9 frames
Codec ID : V_MPEG4/ISO/AVC
Duration : 1 h 29 min
Bit rate : 4 112 kb/s
Width : 1 024 pixels
Height : 554 pixels
Display aspect ratio : 1.85:1
Frame rate mode : Constant
Frame rate : 23.976 (24000/1001) FPS
Color space : YUV
Chroma subsampling : 4:2:0
Bit depth : 8 bits
Scan type : Progressive
Bits/(Pixel*Frame) : 0.302
Stream size : 2.57 GiB (95%)
Writing library : x264 core 157 r2935 545de2f
Encoding settings : cabac=1 / ref=9 / deblock=1:-3:-3 / analyse=0x3:0x133 / me=umh / subme=9 / psy=1 / psy_rd=1.00:0.00 / mixed_ref=1 / me_range=24 / chroma_me=1 / trellis=2 / 8x8dct=1 / cqm=0 / deadzone=21,11 / fast_pskip=0 / chroma_qp_offset=-2 / threads=6 / lookahead_threads=1 / sliced_threads=0 / nr=0 / decimate=1 / interlaced=0 / bluray_compat=0 / constrained_intra=0 / bframes=6 / b_pyramid=2 / b_adapt=2 / b_bias=0 / direct=3 / weightb=1 / open_gop=0 / weightp=2 / keyint=240 / keyint_min=24 / scenecut=40 / intra_refresh=0 / rc_lookahead=60 / rc=crf / mbtree=1 / crf=18.0 / qcomp=0.60 / qpmin=0 / qpmax=69 / qpstep=4 / vbv_maxrate=62500 / vbv_bufsize=78125 / crf_max=0.0 / nal_hrd=none / filler=0 / ip_ratio=1.40 / aq=1:1.00
Default : Yes
Forced : No
Color range : Limited
Color primaries : BT.709
Transfer characteristics : BT.709
Matrix coefficients : BT.709

Audio
ID : 2
Format : AC-3
Format/Info : Audio Coding 3
Format settings, Endianness : Big
Codec ID : A_AC3
Duration : 1 h 29 min
Bit rate mode : Constant
Bit rate : 192 kb/s
Channel(s) : 2 channels
Channel positions : Front: L R
Sampling rate : 48.0 kHz
Frame rate : 31.250 FPS (1536 SPF)
Bit depth : 16 bits
Compression mode : Lossy
Stream size : 123 MiB (4%)
Title : DD 2.0 Audio
Language : English
Service kind : Complete Main
Default : Yes
Forced : No

Text
ID : 3
Format : PGS
Muxing mode : zlib
Codec ID : S_HDMV/PGS
Codec ID/Info : Picture based subtitle format used on BDs/HD-DVDs
Duration : 1 h 29 min
Bit rate : 4 639 b/s
Count of elements : 2902
Stream size : 2.96 MiB (0%)
Language : English
Default : No
Forced : No

Menu
00:00:00.000 : :Chapter 1
00:09:50.465 : :Chapter 2
00:15:58.249 : :Chapter 3
00:24:37.017 : :Chapter 4
00:33:56.660 : :Chapter 5
00:41:37.954 : :Chapter 6
00:50:32.279 : :Chapter 7
00:58:23.542 : :Chapter 8
01:06:50.507 : :Chapter 9
01:17:49.123 : :Chapter 10
01:27:24.364 : :Chapter 11





The New Kids (1985)


The New Kids (1985)


The New Kids (1985)


The New Kids (1985)


The New Kids (1985)