The Lonely Guy (1984)

The Lonely Guy (1984)

The Lonely Guy (1984)
BDRip | MKV | 1920x1048 | English | H264 @ 10597 kbps | DTS @ 1509 kbps | 1 h 30 min | 7.65 GiB
Subtitles: English
Genre: Comedy, Romance

A writer for a greeting card company learns the true meaning of loneliness when he comes home to find his girlfriend in bed with another man.

52151763447641a89c08bfc18bf33cf2.mkv (7.7 GB)



General
Unique ID : 0 (0x0)
Complete name : ./52151763447641a89c08bfc18bf33cf2.mkv
Format : Matroska
Format version : Version 4 / Version 2
File size : 7.65 GiB
Duration : 1 h 30 min
Overall bit rate : 12.1 Mb/s
Encoded date : UTC 2010-02-22 21:41:29
Writing application : no_variable_data
Writing library : no_variable_data

Video
ID : 1
Format : AVC
Format/Info : Advanced Video Codec
Format profile : High@L4.1
Format settings : CABAC / 4 Ref Frames
Format settings, CABAC : Yes
Format settings, RefFrames : 4 frames
Codec ID : V_MPEG4/ISO/AVC
Duration : 1 h 30 min
Bit rate : 10.6 Mb/s
Width : 1 920 pixels
Height : 1 048 pixels
Display aspect ratio : 1.85:1
Frame rate mode : Constant
Frame rate : 23.976 (24000/1001) FPS
Color space : YUV
Chroma subsampling : 4:2:0
Bit depth : 8 bits
Scan type : Progressive
Bits/(Pixel*Frame) : 0.220
Stream size : 6.54 GiB (86%)
Writing library : x264 core 157 r2970 5493be8
Encoding settings : cabac=1 / ref=4 / deblock=1:-3:-3 / analyse=0x3:0x113 / me=umh / subme=8 / psy=1 / psy_rd=1.10:0.00 / mixed_ref=1 / me_range=32 / chroma_me=1 / trellis=2 / 8x8dct=1 / cqm=0 / deadzone=21,11 / fast_pskip=1 / chroma_qp_offset=-2 / threads=33 / lookahead_threads=5 / sliced_threads=0 / nr=0 / decimate=1 / interlaced=0 / bluray_compat=0 / constrained_intra=0 / bframes=3 / b_pyramid=2 / b_adapt=2 / b_bias=0 / direct=3 / weightb=1 / open_gop=0 / weightp=2 / keyint=240 / keyint_min=24 / scenecut=40 / intra_refresh=0 / rc_lookahead=50 / rc=2pass / mbtree=1 / bitrate=10597 / ratetol=1.0 / qcomp=0.60 / qpmin=0 / qpmax=69 / qpstep=4 / cplxblur=20.0 / qblur=0.5 / ip_ratio=1.40 / aq=3:0.70
Default : Yes
Forced : No
Statistics Tags Issue : no_variable_data 1970-01-01 00:00:00 / no_variable_data 2010-02-22 21:41:29
FromStats_BitRate : 10594652
FromStats_Duration : 01:30:28.256000000
FromStats_FrameCount : 130148
FromStats_StreamSize : 7188810416

Audio
ID : 2
Format : DTS
Format/Info : Digital Theater Systems
Mode : 16
Format settings, Endianness : Big
Codec ID : A_DTS
Duration : 1 h 30 min
Bit rate mode : Constant
Bit rate : 1 509 kb/s
Channel(s) : 2 channels
Channel positions : Front: L R
Sampling rate : 48.0 kHz
Frame rate : 93.750 FPS (512 SPF)
Bit depth : 24 bits
Compression mode : Lossy
Stream size : 977 MiB (12%)
Language : English
Default : Yes
Forced : No
Statistics Tags Issue : no_variable_data 1970-01-01 00:00:00 / no_variable_data 2010-02-22 21:41:29
FromStats_BitRate : 1509000
FromStats_Duration : 01:30:28.928000000
FromStats_FrameCount : 508962
FromStats_StreamSize : 1024031544

Text #1
ID : 3
Format : UTF-8
Codec ID : S_TEXT/UTF8
Codec ID/Info : UTF-8 Plain Text
Language : English
Default : No
Forced : No
Statistics Tags Issue : no_variable_data 1970-01-01 00:00:00 / no_variable_data 2010-02-22 21:41:29
FromStats_BitRate : 76
FromStats_Duration : 01:24:21.640000000
FromStats_FrameCount : 1418
FromStats_StreamSize : 48483

Text #2
ID : 4
Format : UTF-8
Codec ID : S_TEXT/UTF8
Codec ID/Info : UTF-8 Plain Text
Title : SDH
Language : English
Default : No
Forced : No
Statistics Tags Issue : no_variable_data 1970-01-01 00:00:00 / no_variable_data 2010-02-22 21:41:29
FromStats_BitRate : 80
FromStats_Duration : 01:24:21.640000000
FromStats_FrameCount : 1529
FromStats_StreamSize : 50947

Menu
00:00:00.000 : en:Chapter 01
00:10:00.600 : en:Chapter 02
00:20:01.200 : en:Chapter 03
00:30:01.800 : en:Chapter 04
00:40:02.400 : en:Chapter 05
00:50:03.000 : en:Chapter 06
01:00:03.600 : en:Chapter 07
01:10:04.200 : en:Chapter 08
01:20:04.800 : en:Chapter 09
01:30:05.400 : en:Chapter 10





The Lonely Guy (1984)


The Lonely Guy (1984)


The Lonely Guy (1984)


The Lonely Guy (1984)


The Lonely Guy (1984)