The King of Comedy (1982)

The King of Comedy (1982)

The King of Comedy (1982)
BDRip | MKV | 1920x1040 | English | H265 @ 5495 kbps | AAC @ 105 kbps | 1 h 48 min | 4.28 GiB
Subtitles: English
Genre: Comedy, Drama

Aspiring comic Rupert Pupkin attempts to achieve success in show business by stalking his idol, a late night talk-show host who craves his own privacy.

97232af81d8e4a3380b4fc349284c56d.mkv (4.3 GB)



General
Unique ID : 33571969969332679061410463857768180743 (0x1941B9E9EBC474875F2EFA15C49CAC07)
Complete name : ./97232af81d8e4a3380b4fc349284c56d.mkv
Format : Matroska
Format version : Version 4 / Version 2
File size : 4.28 GiB
Duration : 1 h 48 min
Overall bit rate : 5 625 kb/s
Movie name : The King of Comedy
Encoded date : UTC 2018-12-23 00:41:18
Writing application : mkvmerge v29.0.0 ('Like It Or Not') 64-bit
Writing library : libebml v1.3.6 + libmatroska v1.4.9
Cover : Yes
Attachments : cover.jpg
Writing frontend : StaxRip v1.9.0.0

Video
ID : 1
Format : HEVC
Format/Info : High Efficiency Video Coding
Format profile : Main 10@L4@Main
Codec ID : V_MPEGH/ISO/HEVC
Duration : 1 h 48 min
Bit rate : 5 496 kb/s
Width : 1 920 pixels
Height : 1 040 pixels
Display aspect ratio : 1.85:1
Frame rate mode : Constant
Frame rate : 23.976 (24000/1001) FPS
Color space : YUV
Chroma subsampling : 4:2:0
Bit depth : 10 bits
Bits/(Pixel*Frame) : 0.115
Stream size : 4.18 GiB (98%)
Writing library : x265 2.9+15-81373aab81df:[Windows][GCC 8.2.0][64 bit] 10bit
Encoding settings : cpuid=1049583 / frame-threads=3 / numa-pools=8 / wpp / no-pmode / no-pme / no-psnr / no-ssim / log-level=2 / input-csp=1 / input-res=1920x1040 / interlace=0 / total-frames=156792 / level-idc=0 / high-tier=1 / uhd-bd=0 / ref=4 / no-allow-non-conformance / no-repeat-headers / annexb / no-aud / no-hrd / info / hash=0 / no-temporal-layers / open-gop / min-keyint=23 / keyint=250 / gop-lookahead=0 / bframes=8 / b-adapt=2 / b-pyramid / bframe-bias=0 / rc-lookahead=80 / lookahead-slices=4 / scenecut=40 / radl=0 / no-splice / no-intra-refresh / ctu=64 / min-cu-size=8 / no-rect / no-amp / max-tu-size=32 / tu-inter-depth=1 / tu-intra-depth=1 / limit-tu=0 / rdoq-level=2 / dynamic-rd=0.00 / no-ssim-rd / signhide / no-tskip / nr-intra=0 / nr-inter=0 / no-constrained-intra / no-strong-intra-smoothing / max-merge=3 / limit-refs=3 / limit-modes / me=3 / subme=5 / merange=57 / temporal-mvp / weightp / no-weightb / no-analyze-src-pics / deblock=-3:-3 / no-sao / no-sao-non-deblock / rd=4 / no-early-skip / rskip / no-fast-intra / no-tskip-fast / no-cu-lossless / no-b-intra / no-splitrd-skip / rdpenalty=0 / psy-rd=2.00 / psy-rdoq=1.00 / no-rd-refine / no-lossless / cbqpoffs=0 / crqpoffs=0 / rc=abr / bitrate=5500 / qcomp=0.60 / qpstep=4 / stats-write=0 / stats-read=2 / cplxblur=20.0 / qblur=0.5 / ipratio=1.40 / pbratio=1.30 / aq-mode=3 / aq-strength=1.00 / cutree / zone-count=0 / no-strict-cbr / qg-size=32 / no-rc-grain / qpmax=69 / qpmin=0 / no-const-vbv / sar=0 / overscan=0 / videoformat=5 / range=0 / colorprim=2 / transfer=2 / colormatrix=2 / chromaloc=0 / display-window=0 / max-cll=0,0 / min-luma=0 / max-luma=1023 / log2-max-poc-lsb=8 / vui-timing-info / vui-hrd-info / slices=1 / no-opt-qp-pps / no-opt-ref-list-length-pps / no-multi-pass-opt-rps / scenecut-bias=0.05 / no-opt-cu-delta-qp / no-aq-motion / no-hdr / no-hdr-opt / no-dhdr10-opt / no-idr-recovery-sei / analysis-reuse-level=5 / scale-factor=0 / refine-intra=0 / refine-inter=0 / refine-mv=0 / no-limit-sao / ctu-info=0 / no-lowpass-dct / refine-mv-type=0 / copy-pic=1 / max-ausize-factor=1.0 / no-dynamic-refine / no-single-sei
Default : Yes
Forced : No

Audio
ID : 2
Format : AAC
Format/Info : Advanced Audio Codec
Format profile : LC
Codec ID : A_AAC-2
Duration : 1 h 48 min
Bit rate : 106 kb/s
Channel(s) : 1 channel
Channel positions : Front: C
Sampling rate : 48.0 kHz
Frame rate : 46.875 FPS (1024 SPF)
Compression mode : Lossy
Delay relative to video : 20 ms
Stream size : 82.5 MiB (2%)
Language : English
Default : No
Forced : No

Text
ID : 3
Format : PGS
Muxing mode : zlib
Codec ID : S_HDMV/PGS
Codec ID/Info : Picture based subtitle format used on BDs/HD-DVDs
Duration : 1 h 44 min
Bit rate : 51.6 kb/s
Count of elements : 2882
Stream size : 38.5 MiB (1%)
Language : English
Default : No
Forced : No

Menu
00:00:00.000 : en:Chapter 01
00:03:14.027 : en:Chapter 02
00:05:47.555 : en:Chapter 03
00:11:06.624 : en:Chapter 04
00:13:37.191 : en:Chapter 05
00:14:57.730 : en:Chapter 06
00:23:38.708 : en:Chapter 07
00:29:40.695 : en:Chapter 08
00:32:05.590 : en:Chapter 09
00:36:29.979 : en:Chapter 10
00:38:20.172 : en:Chapter 11
00:41:12.678 : en:Chapter 12
00:44:43.806 : en:Chapter 13
00:52:31.314 : en:Chapter 14
01:01:18.091 : en:Chapter 15
01:05:16.037 : en:Chapter 16
01:09:30.374 : en:Chapter 17
01:14:34.887 : en:Chapter 18
01:17:00.991 : en:Chapter 19
01:18:32.040 : en:Chapter 20
01:21:53.575 : en:Chapter 21
01:24:58.218 : en:Chapter 22
01:26:28.933 : en:Chapter 23
01:30:21.999 : en:Chapter 24
01:32:23.037 : en:Chapter 25
01:35:06.283 : en:Chapter 26
01:42:39.987 : en:Chapter 27
01:45:19.104 : en:Chapter 28





The King of Comedy (1982)


The King of Comedy (1982)


The King of Comedy (1982)


The King of Comedy (1982)


The King of Comedy (1982)