The Cook, the Thief, His Wife & Her Lover (1989)

The Cook, the Thief, His Wife & Her Lover (1989)

The Cook, the Thief, His Wife & Her Lover (1989)
BDRip | MKV | 1280x544 | English | H264 @ 6500 kbps | AC-3 @ 192 kbps | 2 h 3 min | 5.79 GiB
Subtitles: English
Genre: Crime, Drama

The wife of a barbaric crime boss engages in a secretive romance with a gentle bookseller between meals at her husband's restaurant. Food, colour coding, sex, murder, torture and cannibalism are the exotic fare in this beautifully filmed but brutally uncompromising modern fable which has been interpreted as an allegory for Thatcherism.

The.Cook.The.Thief.His.Wife.And.Her.Lover.1989.720p.BluRay.x264-UioP.mkv (5.8 GB)



General
Unique ID : 193227378415251888152311419747049596353 (0x915E3D4A66F7BC1AB432642D384EE5C1)
Complete name : ./The.Cook.The.Thief.His.Wife.And.Her.Lover.1989.720p.BluRay.x264-UioP.mkv
Format : Matroska
Format version : Version 2
File size : 5.79 GiB
Duration : 2 h 3 min
Overall bit rate : 6 691 kb/s
Movie name : The.Cook.The.Thief.His.Wife.And.Her.Lover.1989.720p.BluRay.x264-UioP
Encoded date : UTC 2012-12-02 21:45:20
Writing application : mkvmerge v5.2.1 ('A Far Off Place') built on Jan 2 2012 23:21:10
Writing library : libebml v1.2.3 + libmatroska v1.3.0

Video
ID : 1
Format : AVC
Format/Info : Advanced Video Codec
Format profile : High@L4.1
Format settings : CABAC / 8 Ref Frames
Format settings, CABAC : Yes
Format settings, RefFrames : 8 frames
Muxing mode : Header stripping
Codec ID : V_MPEG4/ISO/AVC
Duration : 2 h 3 min
Bit rate : 6 500 kb/s
Width : 1 280 pixels
Height : 544 pixels
Display aspect ratio : 2.35:1
Frame rate mode : Constant
Frame rate : 24.000 FPS
Color space : YUV
Chroma subsampling : 4:2:0
Bit depth : 8 bits
Scan type : Progressive
Bits/(Pixel*Frame) : 0.389
Stream size : 5.51 GiB (95%)
Title : The.Cook.The.Thief.His.Wife.And.Her.Lover.1989.720p.BluRay.x264.Rosubbed-UioP
Writing library : x264 core 125 r2200 999b753
Encoding settings : cabac=1 / ref=8 / deblock=1:-2:-2 / analyse=0x3:0x113 / me=umh / subme=10 / psy=1 / psy_rd=1.08:0.00 / mixed_ref=1 / me_range=48 / chroma_me=1 / trellis=2 / 8x8dct=1 / cqm=0 / deadzone=21,11 / fast_pskip=0 / chroma_qp_offset=-2 / threads=12 / lookahead_threads=2 / sliced_threads=0 / nr=0 / decimate=0 / interlaced=0 / bluray_compat=0 / constrained_intra=0 / bframes=8 / b_pyramid=2 / b_adapt=2 / b_bias=0 / direct=3 / weightb=1 / open_gop=0 / weightp=2 / keyint=240 / keyint_min=24 / scenecut=40 / intra_refresh=0 / rc=2pass / mbtree=0 / bitrate=6500 / ratetol=1.0 / qcomp=0.90 / qpmin=0 / qpmax=69 / qpstep=4 / cplxblur=20.0 / qblur=0.5 / ip_ratio=1.20 / pb_ratio=1.10 / aq=1:0.60 / zones=17557,20084,b=1.2,b-bias=-1000
Language : English
Default : Yes
Forced : No

Audio
ID : 2
Format : AC-3
Format/Info : Audio Coding 3
Format settings, Endianness : Big
Muxing mode : Header stripping
Codec ID : A_AC3
Duration : 2 h 3 min
Bit rate mode : Constant
Bit rate : 192 kb/s
Channel(s) : 2 channels
Channel positions : Front: L R
Sampling rate : 48.0 kHz
Frame rate : 31.250 FPS (1536 SPF)
Bit depth : 16 bits
Compression mode : Lossy
Stream size : 170 MiB (3%)
Language : English
Service kind : Complete Main
Default : Yes
Forced : Yes

Text
ID : 3
Format : UTF-8
Codec ID : S_TEXT/UTF8
Codec ID/Info : UTF-8 Plain Text
Language : English
Default : No
Forced : No





The Cook, the Thief, His Wife & Her Lover (1989)


The Cook, the Thief, His Wife & Her Lover (1989)


The Cook, the Thief, His Wife & Her Lover (1989)


The Cook, the Thief, His Wife & Her Lover (1989)


The Cook, the Thief, His Wife & Her Lover (1989)