The Blood Rose (1970)

The Blood Rose (1970)

The Blood Rose (1970)
BDRip | MKV | 1792x1080 | French / English | H264 @ 19306 kbps | FLAC @ 386 kbps | 1 h 34 min | 13.2 GiB
Subtitles: English
Genre: Horror

Frédéric Lansac, an artist and botanist, has a wild affair with party girl Moira, but throws her over when he meets the lovely Anne. Frédéric and Anne marry, but tragedy strikes when Moira shows up at the wedding party and makes a scene, causing Anne to fall into a bonfire. Frédéric and Anne lock themselves up in his mansion with his servants, a pair of mute dwarves. Anne, needless to say, becomes bitter and demanding. Frédéric tells everyone Anne has died, then on the sly, hires a nurse to look after her.

The.Blood.Rose.1970.1080p.BluRay.FLAC.2.0-MiBR=3f528464a1f5f78389b792b94ec512f49a470d6d.part1.rar (6.9 GB)
The.Blood.Rose.1970.1080p.BluRay.FLAC.2.0-MiBR=3f528464a1f5f78389b792b94ec512f49a470d6d.part2.rar (6.4 GB)



General
Unique ID : 294130787593920533005185483732661380405 (0xDD478775ACE3A8D7BA87289A64F92535)
Complete name : ./113cad9ab409b00544e31f4da65dfbb4.mkv
Format : Matroska
Format version : Version 4 / Version 2
File size : 13.2 GiB
Duration : 1 h 34 min
Overall bit rate mode : Variable
Overall bit rate : 20.1 Mb/s
Encoded date : UTC 2020-01-04 16:23:53
Writing application : mkvmerge v8.8.0 ('Wind at my back') 64bit
Writing library : libebml v1.3.3 + libmatroska v1.4.4

Video
ID : 1
Format : AVC
Format/Info : Advanced Video Codec
Format profile : High@L4.1
Format settings : CABAC / 4 Ref Frames
Format settings, CABAC : Yes
Format settings, RefFrames : 4 frames
Codec ID : V_MPEG4/ISO/AVC
Duration : 1 h 34 min
Bit rate : 19.3 Mb/s
Width : 1 792 pixels
Height : 1 080 pixels
Display aspect ratio : 5:3
Frame rate mode : Constant
Frame rate : 24.000 FPS
Color space : YUV
Chroma subsampling : 4:2:0
Bit depth : 8 bits
Scan type : Progressive
Bits/(Pixel*Frame) : 0.416
Stream size : 12.7 GiB (96%)
Writing library : x264 core 155 r2867+74 66b5600 t_mod_Custom_2 [8-bit@all X86_64]
Encoding settings : cabac=1 / ref=4 / deblock=1:-3:-3 / analyse=0x3:0x113 / me=umh / subme=11 / psy=1 / fade_compensate=0.00 / psy_rd=1.10:0.00 / mixed_ref=1 / me_range=32 / chroma_me=1 / trellis=2 / 8x8dct=1 / cqm=0 / deadzone=21,11 / fast_pskip=0 / chroma_qp_offset=-2 / threads=9 / lookahead_threads=1 / sliced_threads=0 / nr=0 / decimate=0 / interlaced=0 / bluray_compat=0 / constrained_intra=0 / fgo=0 / bframes=8 / b_pyramid=2 / b_adapt=2 / b_bias=0 / direct=3 / weightb=1 / open_gop=0 / weightp=2 / keyint=250 / keyint_min=24 / scenecut=40 / intra_refresh=0 / rc_lookahead=60 / rc=crf / mbtree=0 / crf=19.0000 / qcomp=0.60 / qpmin=0:0:0 / qpmax=69:69:69 / qpstep=4 / vbv_maxrate=62500 / vbv_bufsize=78125 / crf_max=0.0 / nal_hrd=none / filler=0 / ip_ratio=1.30 / pb_ratio=1.20 / aq=3:0.65 / aq-sensitivity=10.00 / aq-factor=1.00:1.00:1.00 / aq2=0 / aq3=0
Language : English
Default : Yes
Forced : No
Color range : Limited
Color primaries : BT.709
Transfer characteristics : BT.709
Matrix coefficients : BT.709

Audio #1
ID : 2
Format : FLAC
Format/Info : Free Lossless Audio Codec
Codec ID : A_FLAC
Duration : 1 h 34 min
Bit rate mode : Variable
Bit rate : 387 kb/s
Channel(s) : 2 channels
Channel positions : Front: L R
Sampling rate : 48.0 kHz
Frame rate : 11.719 FPS (4096 SPF)
Bit depth : 16 bits
Stream size : 260 MiB (2%)
Writing library : libFLAC 1.2.1 (UTC 2007-09-17)
Language : French
Default : Yes
Forced : No

Audio #2
ID : 3
Format : FLAC
Format/Info : Free Lossless Audio Codec
Codec ID : A_FLAC
Duration : 1 h 34 min
Bit rate mode : Variable
Bit rate : 352 kb/s
Channel(s) : 2 channels
Channel positions : Front: L R
Sampling rate : 48.0 kHz
Frame rate : 11.719 FPS (4096 SPF)
Bit depth : 16 bits
Stream size : 237 MiB (2%)
Title : English Dub
Writing library : libFLAC 1.2.1 (UTC 2007-09-17)
Language : English
Default : No
Forced : No

Text #1
ID : 4
Format : UTF-8
Codec ID : S_TEXT/UTF8
Codec ID/Info : UTF-8 Plain Text
Duration : 1 h 29 min
Bit rate : 28 b/s
Count of elements : 582
Stream size : 18.7 KiB (0%)
Language : English
Default : Yes
Forced : No

Text #2
ID : 5
Format : PGS
Muxing mode : zlib
Codec ID : S_HDMV/PGS
Codec ID/Info : Picture based subtitle format used on BDs/HD-DVDs
Duration : 1 h 29 min
Bit rate : 5 841 b/s
Count of elements : 1166
Stream size : 3.72 MiB (0%)
Language : English
Default : No
Forced : No

Text #3
ID : 6
Format : PGS
Muxing mode : zlib
Codec ID : S_HDMV/PGS
Codec ID/Info : Picture based subtitle format used on BDs/HD-DVDs
Duration : 43 min 9 s
Bit rate : 274 b/s
Count of elements : 30
Stream size : 86.7 KiB (0%)
Title : Forced Intertitles
Language : English
Default : No
Forced : No

Menu
00:00:00.000 : en:Chapter 01
00:09:54.542 : en:Chapter 02
00:18:20.500 : en:Chapter 03
00:29:44.250 : en:Chapter 04
00:41:50.375 : en:Chapter 05
00:50:45.208 : en:Chapter 06
01:00:33.667 : en:Chapter 07
01:10:26.542 : en:Chapter 08
01:20:15.708 : en:Chapter 09
01:28:09.042 : en:Chapter 10





The Blood Rose (1970)


The Blood Rose (1970)


The Blood Rose (1970)


The Blood Rose (1970)


The Blood Rose (1970)