The Bishop's Wife (1947)

The Bishop's Wife (1947)

The Bishop's Wife (1947)
BDRip | MOV | 960x720 | H264 @ 966 kbps | AAC @ 64 kbps | 1 h 49 min | 809 MiB
Genre: Comedy, Drama, Fantasy, Romance

An Episcopal Bishop, Henry Brougham, has been working for months on the plans for an elaborate new cathedral which he hopes will be paid for primarily by a wealthy, stubborn widow. He is losing sight of his family and of why he became a churchman in the first place. Enter Dudley, an angel sent to help him. Dudley does help everyone he meets, but not necessarily in the way they would have preferred. With the exception of Henry, everyone loves him, but Henry begins to believe that Dudley is there to replace him, both at work and in his family's affections, as Christmas approaches.

The.Bishops.Wife.1947.BluRay.720p.H264.mp4 (808.5 MB)



General
Complete name : ./b944f94ee530db7fcbb3b7d27ca15bf2.tmp/The.Bishops.Wife.1947.BluRay.720p.H264.mp4
Format : MPEG-4
Format profile : Apple audio with iTunes info
Codec ID : M4A (isom/avc1/M4A /mp42)
File size : 809 MiB
Duration : 1 h 49 min
Overall bit rate mode : Variable
Overall bit rate : 1 035 kb/s
Encoded date : UTC 2013-10-16 20:21:17
Tagged date : UTC 2013-10-16 20:21:17

Video
ID : 2
Format : AVC
Format/Info : Advanced Video Codec
Format profile : High@L4.1
Format settings : CABAC / 5 Ref Frames
Format settings, CABAC : Yes
Format settings, RefFrames : 5 frames
Codec ID : avc1
Codec ID/Info : Advanced Video Coding
Duration : 1 h 49 min
Bit rate : 967 kb/s
Maximum bit rate : 3 152 kb/s
Width : 960 pixels
Height : 720 pixels
Display aspect ratio : 4:3
Frame rate mode : Constant
Frame rate : 23.976 (24000/1001) FPS
Color space : YUV
Chroma subsampling : 4:2:0
Bit depth : 8 bits
Scan type : Progressive
Bits/(Pixel*Frame) : 0.058
Stream size : 755 MiB (93%)
Writing library : x264 core 122 r2184M.bare.by.20-40 5c85e0a
Encoded date : UTC 2013-10-16 20:21:21
Tagged date : UTC 2013-10-16 20:21:29

Audio
ID : 1
Format : AAC
Format/Info : Advanced Audio Codec
Format profile : LC
Codec ID : mp4a-40-2
Duration : 1 h 49 min
Bit rate mode : Variable
Bit rate : 64.1 kb/s
Maximum bit rate : 70.1 kb/s
Channel(s) : 2 channels
Channel positions : Front: L R
Sampling rate : 48.0 kHz
Frame rate : 46.875 FPS (1024 SPF)
Compression mode : Lossy
Stream size : 50.1 MiB (6%)
Encoded date : UTC 2013-10-16 20:21:17
Tagged date : UTC 2013-10-16 20:21:29





The Bishop's Wife (1947)


The Bishop's Wife (1947)


The Bishop's Wife (1947)


The Bishop's Wife (1947)


The Bishop's Wife (1947)