The Bells of St. Mary's (1945)

The Bells of St. Mary's (1945)

The Bells of St. Mary's (1945)
BDRip | MKV | 1476x1080 | English | H265 @ 2224 kbps | AC-3 @ 128 kbps | 2 h 5 min | 2.07 GiB
Genre: Drama

Father O'Malley the unconventional priest from 'Going My Way' continues his work for the Catholic Church. This time he is sent to St. Mary's, a run-down parochial school on the verge of condemnation. He and Sister Benedict work together in an attempt to save the school, though their differing methods often lead to good-natured disagreements.

f27ef5b477764053a319fd0c8c3c72e1.mkv (2.1 GB)



General
Complete name : ./f27ef5b477764053a319fd0c8c3c72e1.mkv
Format : Matroska
Format version : Version 2
File size : 2.07 GiB
Duration : 2 h 5 min
Overall bit rate : 2 355 kb/s
Encoded date : UTC 2018-02-01 18:33:02
Writing application : DVDFab 10.0.7.9
Writing library : libebml v1.3.4 + libmatroska v1.4.5

Video
ID : 1
Format : HEVC
Format/Info : High Efficiency Video Coding
Format profile : Main 10@L4@Main
Codec ID : V_MPEGH/ISO/HEVC
Duration : 2 h 5 min
Bit rate : 2 225 kb/s
Width : 1 476 pixels
Height : 1 080 pixels
Display aspect ratio : 4:3
Frame rate mode : Constant
Frame rate : 23.976 (24000/1001) FPS
Color space : YUV
Chroma subsampling : 4:2:0
Bit depth : 10 bits
Bits/(Pixel*Frame) : 0.058
Stream size : 1.96 GiB (94%)
Default : Yes
Forced : No
Color range : Limited
Color primaries : BT.709
Transfer characteristics : BT.709
Matrix coefficients : BT.709

Audio
ID : 2
Format : AC-3
Format/Info : Audio Coding 3
Format settings, Endianness : Big
Codec ID : A_AC3
Duration : 2 h 5 min
Bit rate mode : Constant
Bit rate : 128 kb/s
Channel(s) : 1 channel
Channel positions : Front: C
Sampling rate : 48.0 kHz
Frame rate : 31.250 FPS (1536 SPF)
Bit depth : 16 bits
Compression mode : Lossy
Stream size : 115 MiB (5%)
Language : English
Service kind : Complete Main
Default : Yes
Forced : No

Menu
00:00:00.000 : en:(01)00:00:00:000
00:04:09.332 : en:(02)00:04:09:332
00:17:44.521 : en:(03)00:17:44:521
00:30:21.903 : en:(04)00:30:21:903
00:37:23.324 : en:(05)00:37:23:324
00:50:30.193 : en:(06)00:50:30:193
00:59:09.712 : en:(07)00:59:09:712
01:09:26.954 : en:(08)01:09:26:954
01:17:48.455 : en:(09)01:17:48:455
01:30:12.698 : en:(10)01:30:12:698
01:43:03.302 : en:(11)01:43:03:302
01:56:53.297 : en:(12)01:56:53:297





The Bells of St. Mary's (1945)


The Bells of St. Mary's (1945)


The Bells of St. Mary's (1945)


The Bells of St. Mary's (1945)


The Bells of St. Mary's (1945)