Tell Them Willie Boy Is Here (1969)

Tell Them Willie Boy Is Here (1969)

Tell Them Willie Boy Is Here (1969)
BDRip 720p | MKV | 1280x544 | AVC@4029 kb/s | English DTS@768 kb/s
2 channels | 1 h 37 min | 3.27 GB
Genre: Drama, Western

In 1909, when young Paiute Indian Willie Boy returns to his California reservation to be with Lola, whose father disapproves of him, a killing in self defense takes place, triggering a massive man hunt for Willie.

IMDB - Won 2 BAFTA Film Awards. Another 1 win & 1 nomination.


General
Tell.Them.Willie.Boy.Is.Here.1969.720p.BluRay.x264-GUACAMOLE\gua-tellthemwillie-720p.mkv
Format : Matroska
Format version : Version 4 / Version 2
File size : 3.27 GiB
Duration : 1 h 37 min
Overall bit rate : 4 800 kb/s
Encoded date : UTC 2017-10-01 02:31:12
Writing application : mkvmerge v9.0.1 ('Obstacles') 64bit
Writing library : libebml v1.3.3 + libmatroska v1.4.4

Video
ID : 1
Format : AVC
Format/Info : Advanced Video Codec
Format profile : High@L4.1
Format settings, CABAC : Yes
Format settings, ReFrames : 5 frames
Codec ID : V_MPEG4/ISO/AVC
Duration : 1 h 37 min
Bit rate : 4 029 kb/s
Width : 1 280 pixels
Height : 544 pixels
Display aspect ratio : 2.35:1
Frame rate mode : Constant
Frame rate : 23.976 (24000/1001) FPS
Color space : YUV
Chroma subsampling : 4:2:0
Bit depth : 8 bits
Scan type : Progressive
Bits/(Pixel*Frame) : 0.241
Stream size : 2.75 GiB (84%)
Writing library : x264 core 150 r2833 df79067
Encoding settings : cabac=1 / ref=5 / deblock=1:0:0 / analyse=0x3:0x113 / me=umh / subme=8 / psy=1 / psy_rd=1.00:0.00 / mixed_ref=1 / me_range=16 / chroma_me=1 / trellis=2 / 8x8dct=1 / cqm=0 / deadzone=21,11 / fast_pskip=0 / chroma_qp_offset=-2 / threads=12 / lookahead_threads=2 / sliced_threads=0 / nr=0 / decimate=1 / interlaced=0 / bluray_compat=0 / constrained_intra=0 / bframes=3 / b_pyramid=2 / b_adapt=1 / b_bias=0 / direct=1 / weightb=1 / open_gop=0 / weightp=2 / keyint=250 / keyint_min=23 / scenecut=40 / intra_refresh=0 / rc_lookahead=50 / rc=2pass / mbtree=1 / bitrate=4029 / ratetol=1.0 / qcomp=0.60 / qpmin=0 / qpmax=69 / qpstep=4 / cplxblur=20.0 / qblur=0.5 / ip_ratio=1.40 / aq=1:1.00
Default : Yes
Forced : No

Audio
ID : 2
Format : DTS
Format/Info : Digital Theater Systems
Mode : 16
Format settings, Endianness : Big
Codec ID : A_DTS
Duration : 1 h 37 min
Bit rate mode : Constant
Bit rate : 768 kb/s
Channel(s) : 2 channels
Channel positions : Front: L R
Sampling rate : 48.0 kHz
Frame rate : 93.750 FPS (512 spf)
Bit depth : 24 bits
Compression mode : Lossy
Stream size : 536 MiB (16%)
Language : English
Default : Yes
Forced : No


BDRip 720p Screenshots

Tell Them Willie Boy Is Here (1969)

Tell Them Willie Boy Is Here (1969)

Tell Them Willie Boy Is Here (1969)

Tell Them Willie Boy Is Here (1969)

Tell Them Willie Boy Is Here (1969)

Tell Them Willie Boy Is Here (1969)

Tell Them Willie Boy Is Here (1969)


Come Visit My Blog (•‿•)