Teacher's Pet (1958)

Teacher's Pet (1958)

Teacher's Pet (1958)
WEBRip | MKV | 1920x1080 | English | H264 @ 2500 kbps | AAC @ 224 kbps | 2 h 0 min | 2.29 GiB
Genre: Comedy, Romance

A rugged city editor (Clark Gable) poses as a journalism student and flirts with the professor (Doris Day).

Teachers.Pet.1958.1080p.WEBRip.x264-RARBG.srt (132.0 KB)
Teachers.Pet.1958.1080p.WEBRip.x264-RARBG.mkv (2.3 GB)



General
Unique ID : 29734919904437419370877770556102599913 (0x165EBCBD51DFC27AEC0CBA4DB232E4E9)
Complete name : ./Teachers.Pet.1958.1080p.WEBRip.x264-RARBG.mkv
Format : Matroska
Format version : Version 4 / Version 2
File size : 2.29 GiB
Duration : 2 h 0 min
Overall bit rate : 2 726 kb/s
Encoded date : UTC 2019-09-07 10:19:45
Writing application : mkvmerge v36.0.0 ('Is That Jazz?') 64-bit
Writing library : libebml v1.3.9 + libmatroska v1.5.2

Video
ID : 1
Format : AVC
Format/Info : Advanced Video Codec
Format profile : High@L4.1
Format settings : CABAC / 4 Ref Frames
Format settings, CABAC : Yes
Format settings, RefFrames : 4 frames
Codec ID : V_MPEG4/ISO/AVC
Duration : 2 h 0 min
Bit rate : 2 500 kb/s
Width : 1 920 pixels
Height : 1 080 pixels
Display aspect ratio : 16:9
Frame rate mode : Constant
Frame rate : 23.976 (23976/1000) FPS
Color space : YUV
Chroma subsampling : 4:2:0
Bit depth : 8 bits
Scan type : Progressive
Bits/(Pixel*Frame) : 0.050
Stream size : 2.10 GiB (92%)
Writing library : x264 core 152 r2851M ba24899
Encoding settings : cabac=1 / ref=4 / deblock=1:-1:-1 / analyse=0x3:0x113 / me=umh / subme=9 / psy=1 / psy_rd=1.00:0.15 / mixed_ref=1 / me_range=24 / chroma_me=1 / trellis=2 / 8x8dct=1 / cqm=0 / deadzone=21,11 / fast_pskip=1 / chroma_qp_offset=-3 / threads=16 / lookahead_threads=4 / sliced_threads=0 / nr=0 / decimate=1 / interlaced=0 / bluray_compat=0 / constrained_intra=0 / bframes=3 / b_pyramid=2 / b_adapt=2 / b_bias=0 / direct=3 / weightb=1 / open_gop=0 / weightp=2 / keyint=250 / keyint_min=25 / scenecut=40 / intra_refresh=0 / rc_lookahead=50 / rc=2pass / mbtree=1 / bitrate=2500 / ratetol=1.0 / qcomp=0.60 / qpmin=0 / qpmax=69 / qpstep=4 / cplxblur=20.0 / qblur=0.5 / vbv_maxrate=31250 / vbv_bufsize=31250 / nal_hrd=none / filler=0 / ip_ratio=1.40 / aq=3:1.00
Default : Yes
Forced : No

Audio
ID : 2
Format : AAC
Format/Info : Advanced Audio Codec
Format profile : LC
Codec ID : A_AAC-2
Duration : 2 h 0 min
Bit rate : 224 kb/s
Channel(s) : 2 channels
Channel positions : Front: L R
Sampling rate : 48.0 kHz
Frame rate : 46.875 FPS (1024 SPF)
Compression mode : Lossy
Delay relative to video : -43 ms
Stream size : 192 MiB (8%)
Language : English
Default : Yes
Forced : No

Menu
00:00:00.000 : :Hoofdstuk 01
00:09:00.000 : :Hoofdstuk 02
00:18:00.000 : :Hoofdstuk 03
00:27:00.000 : :Hoofdstuk 04
00:36:00.000 : :Hoofdstuk 05
00:45:00.000 : :Hoofdstuk 06
00:54:00.000 : :Hoofdstuk 07
01:03:00.000 : :Hoofdstuk 08
01:12:00.000 : :Hoofdstuk 09
01:21:00.000 : :Hoofdstuk 10
01:30:00.000 : :Hoofdstuk 11
01:39:00.000 : :Hoofdstuk 12
01:48:00.000 : :Hoofdstuk 13
01:57:00.000 : :Hoofdstuk 14





Teacher's Pet (1958)


Teacher's Pet (1958)


Teacher's Pet (1958)


Teacher's Pet (1958)


Teacher's Pet (1958)