The Looking Glass War (1969)

The Looking Glass War (1969)

The Looking Glass War (1969)
WEB-DL | MKV | 1280x540 | English | H264 @ 4064 kbps | AAC @ 96 kbps | 1 h 47 min | 3.12 GiB
Subtitles: Dutch
Genre: Action, Drama, Thriller

From the John le Carre novel about a British spy who sends a Polish defector to East Germany to verify missile sites.

The Looking Glass War1969.MULTi.720p.WEB-DL.AAC.2.0.H264-QWERTZ.NL.mkv (3.1 GB)



General
Unique ID : 25871603306350952241573678473175913876 (0x1376B08675D45118BC217886CF145594)
Complete name : ./The Looking Glass War1969.MULTi.720p.WEB-DL.AAC.2.0.H264-QWERTZ.NL.mkv
Format : Matroska
Format version : Version 4 / Version 2
File size : 3.12 GiB
Duration : 1 h 47 min
Overall bit rate : 4 165 kb/s
Encoded date : UTC 2018-10-06 10:16:08
Writing application : mkvmerge v27.0.0 ('Metropolis') 64-bit
Writing library : libebml v1.3.6 + libmatroska v1.4.9
Cover : Yes
Attachments : cover.png

Video
ID : 1
Format : AVC
Format/Info : Advanced Video Codec
Format profile : Main@L3.1
Format settings : 2 Ref Frames
Format settings, CABAC : No
Format settings, RefFrames : 2 frames
Codec ID : V_MPEG4/ISO/AVC
Duration : 1 h 47 min
Bit rate : 4 064 kb/s
Width : 1 280 pixels
Height : 540 pixels
Display aspect ratio : 2.40:1
Frame rate mode : Constant
Frame rate : 23.976 (24000/1001) FPS
Color space : YUV
Chroma subsampling : 4:2:0
Bit depth : 8 bits
Scan type : Progressive
Bits/(Pixel*Frame) : 0.245
Stream size : 3.04 GiB (98%)
Title : hdmovpremier.toile-libre.org
Default : Yes
Forced : No
Color range : Limited
Color primaries : BT.709
Transfer characteristics : BT.709
Matrix coefficients : BT.709

Audio
ID : 2
Format : AAC
Format/Info : Advanced Audio Codec
Format profile : LC
Codec ID : A_AAC-2
Duration : 1 h 47 min
Bit rate : 96.0 kb/s
Channel(s) : 2 channels
Channel positions : Front: L R
Sampling rate : 48.0 kHz
Frame rate : 46.875 FPS (1024 SPF)
Compression mode : Lossy
Delay relative to video : 1 ms
Stream size : 74.4 MiB (2%)
Language : English
Default : No
Forced : No

Text
ID : 3
Format : UTF-8
Codec ID : S_TEXT/UTF8
Codec ID/Info : UTF-8 Plain Text
Duration : 1 h 43 min
Bit rate : 32 b/s
Count of elements : 559
Stream size : 24.2 KiB (0%)
Language : Dutch
Default : Yes
Forced : No

Menu





The Looking Glass War (1969)


The Looking Glass War (1969)


The Looking Glass War (1969)


The Looking Glass War (1969)


The Looking Glass War (1969)