Syncopation (1942) [Eureka Classics - Eureka!]

Syncopation (1942) [Eureka Classics - Eureka!]

Syncopation (1942) [Eureka Classics - Eureka!]
BDRip 1080p | MKV | AVC, 1480x1080, ~ 3.8 Mbps | 1hr 28mn | 2.61 GB | English: AC3, 2 ch, 448 kbps
BDRip 720p | MKV | AVC, 988x720, ~ 2.6 Mbps | 1hr 28mn | 1.76 GB | English: AC3, 2 ch, 256 kbps
Subtitles: English
Genre: Comedy, History, Music



Director: William Dieterle
Writer: Valentine Davies (story), Philip Yordan (screenplay)
Stars: Adolphe Menjou, Jackie Cooper, Bonita Granville

Covering a quarter-century of American 'syncopated" music (Ragtime, Jazz, Swing, Blues, Boogie Woogie)from prior to WWI through prohibition, the stock-market crash, the depression and the outbreak of WWII. A romance between singer Kit Latimer, from New Orleans, and Johnny Schumacher, in which they share and argue over musical ideas ensues. Prior to the making of the film RKO held a contest for the readers of 'The Saturday Evening Post" to vote on the musicians to make up the All-American Dance Band featured in the film; the magazine's readers chose, in the above-the-title listing: Charlie Barnet, Benny Goodman, Harry James, Jack Jenney. Gene Krupa, Alvino Rey, Joe Venuti, and singer Connee Boswell.

Extras:
- None




General
Unique ID : 172591211765005384169164659953669506022 (0x81D7DBB8BCF6786C86CF9C509D3803E6)
Complete name : F:\Syncopation.1942.Eureka.1p\Syncopation.1942.Eureka.1p.mkv
Format : Matroska
Format version : Version 4
File size : 2.61 GiB
Duration : 1 h 28 min
Overall bit rate : 4 239 kb/s
Movie name : Release RSU75
Encoded date : UTC 2020-06-02 19:27:48
Writing application : mkvmerge v6.6.0 ('The Edge Of The In Between') built on Dec 1 2013 17:55:00
Writing library : libebml v1.3.0 + libmatroska v1.4.1

Video
ID : 1
Format : AVC
Format/Info : Advanced Video Codec
Format profile : High@L4.1
Format settings : CABAC / 4 Ref Frames
Format settings, CABAC : Yes
Format settings, Reference fra : 4 frames
Codec ID : V_MPEG4/ISO/AVC
Duration : 1 h 28 min
Bit rate : 3 800 kb/s
Width : 1 480 pixels
Height : 1 080 pixels
Display aspect ratio : 1.370
Frame rate mode : Constant
Frame rate : 23.976 (23976/1000) FPS
Color space : YUV
Chroma subsampling : 4:2:0
Bit depth : 8 bits
Scan type : Progressive
Bits/(Pixel*Frame) : 0.099
Stream size : 2.29 GiB (87%)
Writing library : x264 core 148 r2643 5c65704
Encoding settings : cabac=1 / ref=4 / deblock=1:0:0 / analyse=0x3:0x113 / me=umh / subme=8 / psy=1 / psy_rd=1.00:0.00 / mixed_ref=1 / me_range=24 / chroma_me=1 / trellis=1 / 8x8dct=1 / cqm=0 / deadzone=21,11 / fast_pskip=1 / chroma_qp_offset=-2 / threads=3 / lookahead_threads=1 / sliced_threads=0 / nr=0 / decimate=1 / interlaced=0 / bluray_compat=0 / constrained_intra=0 / bframes=3 / b_pyramid=0 / b_adapt=2 / b_bias=0 / direct=3 / weightb=1 / open_gop=0 / weightp=2 / keyint=250 / keyint_min=25 / scenecut=40 / intra_refresh=0 / rc_lookahead=40 / rc=abr / mbtree=1 / bitrate=3800 / ratetol=1.0 / qcomp=0.60 / qpmin=10 / qpmax=51 / qpstep=4 / ip_ratio=1.41 / aq=1:1.00
Language : English
Default : Yes
Forced : No
Duration_Source : General_Duration

Audio
ID : 2
Format : AC-3
Format/Info : Audio Coding 3
Commercial name : Dolby Digital
Codec ID : A_AC3
Duration : 1 h 28 min
Bit rate mode : Constant
Bit rate : 448 kb/s
Channel(s) : 2 channels
Channel layout : L R
Sampling rate : 44.1 kHz
Frame rate : 28.711 FPS (1536 SPF)
Compression mode : Lossy
Stream size : 283 MiB (11%)
Title : Stereo
Language : English
Service kind : Complete Main
Default : Yes
Forced : No
Duration_Source : General_Duration

Text
ID : 3
Format : PGS
Muxing mode : zlib
Codec ID : S_HDMV/PGS
Codec ID/Info : Picture based subtitle format used on BDs/HD-DVDs
Language : English
Default : Yes
Forced : No

Menu
00:00:00.000 : en:Chapter 01
00:09:18.808 : en:Chapter 02
00:20:08.957 : en:Chapter 03
00:30:07.889 : en:Chapter 04
00:39:27.531 : en:Chapter 05
00:50:08.755 : en:Chapter 06
01:00:11.566 : en:Chapter 07
01:09:21.824 : en:Chapter 08
01:19:43.069 : en:Chapter 09





General
Unique ID : 218684689952258814560396111750726969448 (0xA48523A7945661F3B1D5E97B2EF06868)
Complete name : F:\Syncopation.1942.Eureka.7p\Syncopation.1942.Eureka.7p.mkv
Format : Matroska
Format version : Version 4
File size : 1.76 GiB
Duration : 1 h 28 min
Overall bit rate : 2 857 kb/s
Movie name : Release RSU75
Encoded date : UTC 2020-06-02 18:35:58
Writing application : mkvmerge v6.6.0 ('The Edge Of The In Between') built on Dec 1 2013 17:55:00
Writing library : libebml v1.3.0 + libmatroska v1.4.1

Video
ID : 1
Format : AVC
Format/Info : Advanced Video Codec
Format profile : High@L4.1
Format settings : CABAC / 4 Ref Frames
Format settings, CABAC : Yes
Format settings, Reference fra : 4 frames
Codec ID : V_MPEG4/ISO/AVC
Duration : 1 h 28 min
Bit rate : 2 600 kb/s
Width : 988 pixels
Height : 720 pixels
Display aspect ratio : 1.371
Original display aspect ratio : 1.370
Frame rate mode : Constant
Frame rate : 23.976 (23976/1000) FPS
Color space : YUV
Chroma subsampling : 4:2:0
Bit depth : 8 bits
Scan type : Progressive
Bits/(Pixel*Frame) : 0.152
Stream size : 1.57 GiB (89%)
Writing library : x264 core 148 r2643 5c65704
Encoding settings : cabac=1 / ref=4 / deblock=1:0:0 / analyse=0x3:0x113 / me=umh / subme=8 / psy=1 / psy_rd=1.00:0.00 / mixed_ref=1 / me_range=24 / chroma_me=1 / trellis=1 / 8x8dct=1 / cqm=0 / deadzone=21,11 / fast_pskip=1 / chroma_qp_offset=-2 / threads=3 / lookahead_threads=1 / sliced_threads=0 / nr=0 / decimate=1 / interlaced=0 / bluray_compat=0 / constrained_intra=0 / bframes=3 / b_pyramid=0 / b_adapt=2 / b_bias=0 / direct=3 / weightb=1 / open_gop=0 / weightp=2 / keyint=250 / keyint_min=25 / scenecut=40 / intra_refresh=0 / rc_lookahead=40 / rc=abr / mbtree=1 / bitrate=2600 / ratetol=1.0 / qcomp=0.60 / qpmin=10 / qpmax=51 / qpstep=4 / ip_ratio=1.41 / aq=1:1.00
Language : English
Default : Yes
Forced : No
Duration_Source : General_Duration

Audio
ID : 2
Format : AC-3
Format/Info : Audio Coding 3
Commercial name : Dolby Digital
Codec ID : A_AC3
Duration : 1 h 28 min
Bit rate mode : Constant
Bit rate : 256 kb/s
Channel(s) : 2 channels
Channel layout : L R
Sampling rate : 44.1 kHz
Frame rate : 28.711 FPS (1536 SPF)
Compression mode : Lossy
Stream size : 162 MiB (9%)
Title : Stereo
Language : English
Service kind : Complete Main
Default : Yes
Forced : No
Duration_Source : General_Duration

Text
ID : 3
Format : PGS
Muxing mode : zlib
Codec ID : S_HDMV/PGS
Codec ID/Info : Picture based subtitle format used on BDs/HD-DVDs
Language : English
Default : Yes
Forced : No

Menu
00:00:00.000 : en:Chapter 01
00:09:18.808 : en:Chapter 02
00:20:08.957 : en:Chapter 03
00:30:07.889 : en:Chapter 04
00:39:27.531 : en:Chapter 05
00:50:08.755 : en:Chapter 06
01:00:11.566 : en:Chapter 07
01:09:21.824 : en:Chapter 08
01:19:43.069 : en:Chapter 09




Screenshots 1080p (click to enlarge to original size):

Syncopation (1942) [Eureka Classics - Eureka!]

Syncopation (1942) [Eureka Classics - Eureka!]

Syncopation (1942) [Eureka Classics - Eureka!]



Screenshots 720p (click to enlarge to original size):

Syncopation (1942) [Eureka Classics - Eureka!]






If you like this release please visit my blog
In it you will find Eureka! and other releases