Sweet Smell of Success (1957)

Sweet Smell of Success (1957)

Sweet Smell of Success (1957)
BDRip 1080p | MKV | 1808x1080 | AVC@12.4 Mb/s | English FLAC@555 kb/s
Subs: English | 1 channel | 1 h 36 min | 8.74 GB
Genre: Drama, Film-Noir

Powerful but unethical Broadway columnist J.J. Hunsecker coerces unscrupulous press agent Sidney Falco into breaking up his sister's romance with a jazz musician.

IMDB - Nominated for 1 BAFTA Film Award. Another 3 wins & 2 nominations


General
Sweet.Smell.of.Success.1957.1080p.BluRay.x264-SADPANDA\Sweet.Smell.of.Success.1957.1080p.BluRay.x264-SADPANDA.mkv
Format : Matroska
Format version : Version 4 / Version 2
File size : 8.74 GiB
Duration : 1 h 36 min
Overall bit rate mode : Variable
Overall bit rate : 12.9 Mb/s
Encoded date : UTC 2017-01-14 21:49:49
Writing application : mkvmerge v9.7.1 ('Pandemonium') 64bit
Writing library : libebml v1.3.4 + libmatroska v1.4.5

Video
ID : 1
Format : AVC
Format/Info : Advanced Video Codec
Format profile : High@L4.1
Format settings, CABAC : Yes
Format settings, ReFrames : 4 frames
Codec ID : V_MPEG4/ISO/AVC
Duration : 1 h 36 min
Bit rate : 12.4 Mb/s
Width : 1 808 pixels
Height : 1 080 pixels
Display aspect ratio : 5:3
Frame rate mode : Constant
Frame rate : 23.976 (24000/1001) FPS
Color space : YUV
Chroma subsampling : 4:2:0
Bit depth : 8 bits
Scan type : Progressive
Bits/(Pixel*Frame) : 0.265
Stream size : 8.36 GiB (96%)
Writing library : x264 core 148 r2744 b97ae06
Encoding settings : cabac=1 / ref=4 / deblock=1:-3:-3 / analyse=0x3:0x133 / me=umh / subme=9 / psy=1 / psy_rd=1.00:0.25 / mixed_ref=1 / me_range=24 / chroma_me=1 / trellis=2 / 8x8dct=1 / cqm=0 / deadzone=21,11 / fast_pskip=1 / chroma_qp_offset=-4 / threads=24 / lookahead_threads=2 / sliced_threads=0 / nr=0 / decimate=1 / interlaced=0 / bluray_compat=0 / constrained_intra=0 / bframes=3 / b_pyramid=2 / b_adapt=2 / b_bias=0 / direct=3 / weightb=1 / open_gop=0 / weightp=2 / keyint=240 / keyint_min=24 / scenecut=40 / intra_refresh=0 / rc_lookahead=60 / rc=2pass / mbtree=1 / bitrate=12385 / ratetol=1.0 / qcomp=0.60 / qpmin=0 / qpmax=69 / qpstep=4 / cplxblur=20.0 / qblur=0.5 / ip_ratio=1.40 / aq=1:0.75
Default : Yes
Forced : No

Audio
ID : 2
Format : FLAC
Format/Info : Free Lossless Audio Codec
Codec ID : A_FLAC
Duration : 1 h 36 min
Bit rate mode : Variable
Bit rate : 555 kb/s
Channel(s) : 1 channel
Channel positions : Front: C
Sampling rate : 48.0 kHz
Frame rate : 11.719 FPS (4096 spf)
Bit depth : 24 bits
Stream size : 384 MiB (4%)
Writing library : libFLAC 1.2.1 (UTC 2007-09-17)
Language : English
Default : Yes
Forced : No

Text #1
ID : 3
Format : UTF-8
Codec ID : S_TEXT/UTF8
Codec ID/Info : UTF-8 Plain Text
Duration : 1 h 34 min
Bit rate : 83 b/s
Count of elements : 1322
Stream size : 58.1 KiB (0%)
Language : English
Default : No
Forced : No

Text #2
ID : 4
Format : UTF-8
Codec ID : S_TEXT/UTF8
Codec ID/Info : UTF-8 Plain Text
Duration : 1 h 35 min
Bit rate : 87 b/s
Count of elements : 1380
Stream size : 60.8 KiB (0%)
Title : SDH
Language : English
Default : No
Forced : No

Menu
00:00:00.000 : en:00:00:00.000
00:02:12.507 : en:00:02:12.507
00:07:23.568 : en:00:07:23.568
00:09:51.299 : en:00:09:51.299
00:13:23.678 : en:00:13:23.678
00:15:11.160 : en:00:15:11.160
00:18:38.743 : en:00:18:38.743
00:26:43.811 : en:00:26:43.811
00:31:43.193 : en:00:31:43.193
00:36:19.511 : en:00:36:19.511
00:39:08.638 : en:00:39:08.638
00:44:43.180 : en:00:44:43.180
00:46:41.215 : en:00:46:41.215
00:50:05.211 : en:00:50:05.211
00:53:27.329 : en:00:53:27.329
00:58:15.492 : en:00:58:15.492
01:01:22.679 : en:01:01:22.679
01:04:16.895 : en:01:04:16.895
01:12:10.451 : en:01:12:10.451
01:15:58.846 : en:01:15:58.846
01:19:40.651 : en:01:19:40.651
01:25:26.371 : en:01:25:26.371
01:30:13.199 : en:01:30:13.199


BDRip 1080p Screenshots

Sweet Smell of Success (1957)

Sweet Smell of Success (1957)

Sweet Smell of Success (1957)

Sweet Smell of Success (1957)


Come Visit My Blog (•‿•)