Sunset Blvd. (1950)

Sunset Blvd. (1950)

Sunset Blvd. (1950)
BDRip 720p | MKV | 976x720 | AVC@4026 kb/s | English AC3@224 kb/s | 2 channels | 1 h 50 min | 3.27 GB
Genre: Drama, Film-Noir

A hack screenwriter writes a screenplay for a former silent-film star who has faded into Hollywood obscurity.

IMDB - Top Rated Movies #54 | Won 3 Oscars. Another 15 wins & 18 nominations


General
Unique ID : 222302811913199976264124456413222711684 (0xA73DF6D7063D41229AD2C4CC7C48B184)
Complete name : D:\A\d-sunsetblvd-720p.mkv
Format : Matroska
Format version : Version 4 / Version 2
File size : 3.28 GiB
Duration : 1 h 50 min
Overall bit rate : 4 251 kb/s
Movie name : Sunset Boulevard (1950)
Encoded date : UTC 2017-01-02 17:40:38
Writing application : mkvmerge v9.2.0 ('Photograph') 32bit
Writing library : libebml v1.3.3 + libmatroska v1.4.4

Video
ID : 2
Format : AVC
Format/Info : Advanced Video Codec
Format profile : High@L4.1
Format settings, CABAC : Yes
Format settings, ReFrames : 5 frames
Codec ID : V_MPEG4/ISO/AVC
Duration : 1 h 50 min
Bit rate : 4 026 kb/s
Width : 976 pixels
Height : 720 pixels
Display aspect ratio : 4:3
Frame rate mode : Constant
Frame rate : 23.976 (24000/1001) FPS
Color space : YUV
Chroma subsampling : 4:2:0
Bit depth : 8 bits
Scan type : Progressive
Bits/(Pixel*Frame) : 0.239
Stream size : 3.10 GiB (95%)
Title : Sunset Boulevard (1950)
Writing library : x264 core 133 r2334 a3ac64b
Encoding settings : cabac=1 / ref=5 / deblock=1:-1:-1 / analyse=0x3:0x133 / me=umh / subme=7 / psy=1 / psy_rd=1.00:0.15 / mixed_ref=1 / me_range=16 / chroma_me=1 / trellis=1 / 8x8dct=1 / cqm=0 / deadzone=21,11 / fast_pskip=0 / chroma_qp_offset=-3 / threads=12 / lookahead_threads=2 / sliced_threads=0 / nr=0 / decimate=1 / interlaced=0 / bluray_compat=0 / constrained_intra=0 / bframes=3 / b_pyramid=2 / b_adapt=1 / b_bias=0 / direct=3 / weightb=1 / open_gop=0 / weightp=2 / keyint=240 / keyint_min=23 / scenecut=40 / intra_refresh=0 / rc_lookahead=40 / rc=2pass / mbtree=1 / bitrate=4026 / ratetol=1.0 / qcomp=0.60 / qpmin=0 / qpmax=69 / qpstep=4 / cplxblur=20.0 / qblur=0.5 / vbv_maxrate=50000 / vbv_bufsize=62500 / nal_hrd=none / ip_ratio=1.40 / aq=1:1.00
Default : Yes
Forced : No

Audio
ID : 1
Format : AC-3
Format/Info : Audio Coding 3
Mode extension : CM (complete main)
Format settings, Endianness : Big
Codec ID : A_AC3
Duration : 1 h 50 min
Bit rate mode : Constant
Bit rate : 224 kb/s
Channel(s) : 2 channels
Channel positions : Front: L R
Sampling rate : 48.0 kHz
Frame rate : 31.250 FPS (1536 spf)
Bit depth : 16 bits
Compression mode : Lossy
Stream size : 177 MiB (5%)
Title : AC3
Language : English
Default : Yes
Forced : No

Menu
00:00:00.000 : de:00:00:00.000
00:02:45.207 : de:00:02:45.207
00:10:20.620 : de:00:10:20.620
00:13:29.017 : de:00:13:29.017
00:17:47.775 : de:00:17:47.775
00:24:02.399 : de:00:24:02.399
00:29:17.089 : de:00:29:17.089
00:33:10.989 : de:00:33:10.989
00:37:43.761 : de:00:37:43.761
00:41:14.055 : de:00:41:14.055
00:56:09.783 : de:00:56:09.783
01:01:09.916 : de:01:01:09.916
01:04:01.504 : de:01:04:01.504
01:07:28.670 : de:01:07:28.670
01:15:53.799 : de:01:15:53.799
01:21:17.331 : de:01:21:17.331
01:30:01.146 : de:01:30:01.146
01:38:38.204 : de:01:38:38.204
01:43:26.867 : de:01:43:26.867


BDRip 720p Screenshots

Sunset Blvd. (1950)

Sunset Blvd. (1950)

Sunset Blvd. (1950)

Sunset Blvd. (1950)


Come Visit My Blog (•‿•)