Sun Ra: A Joyful Noise (1980)

Sun Ra: A Joyful Noise (1980)

Sun Ra: A Joyful Noise (1980)
DVD5 | VIDEO_TS | PAL 4:3 | 720 x 576 | VBR | ~ 59 mins | 3.47 GB
Audio: English AC-3 256 Kbps, 2 channels | Subs: None
Genre: Documentary, Music

Robert Mugge filmed jazz great Sun Ra on location in Philadelphia, Baltimore, and Washington, D.C. between 1978 and 1980.
The resulting 60-minute film includes multiple public and private performances, poetry readings, a band rehearsal, interviews, and extensive improvisations. Transferred to HD from the original 16mm film and lovingly restored for the best possible viewing experience.

General
Complete name : Sun.Ra.A.Joyful.Noise\VIDEO_TS\VTS_01_1.VOB
Format : MPEG-PS
File size : 1 024 MiB
Duration : 16 min 38 s
Overall bit rate mode : Variable
Overall bit rate : 8 606 kb/s
Writing library : Created by Nero

Video
ID : 224 (0xE0)
Format : MPEG Video
Format version : Version 2
Format profile : Main@Main
Format settings, BVOP : Yes
Format settings, Matrix : Custom
Format settings, GOP : M=3, N=15
Duration : 16 min 38 s
Bit rate mode : Variable
Bit rate : 8 179 kb/s
Maximum bit rate : 9 610 kb/s
Width : 720 pixels
Height : 576 pixels
Display aspect ratio : 4:3
Frame rate : 25.000 FPS
Standard : PAL
Color space : YUV
Chroma subsampling : 4:2:0
Bit depth : 8 bits
Scan type : Progressive
Scan order : Bottom Field First
Compression mode : Lossy
Bits/(Pixel*Frame) : 0.789
Time code of first frame : 00:00:00:00
Time code source : Group of pictures header
GOP, Open/Closed : Open
GOP, Open/Closed of first frame : Closed
Stream size : 973 MiB (95%)
Writing library : Created by Nero

Audio
ID : 192 (0xC0)
Format : MPEG Audio
Format version : Version 1
Format profile : Layer 2
Duration : 16 min 37 s
Bit rate mode : Constant
Bit rate : 256 kb/s
Channel(s) : 2 channels
Sampling rate : 48.0 kHz
Compression mode : Lossy
Delay relative to video : -25 ms
Stream size : 30.5 MiB (3%)

Menu
Screenshots

Sun Ra: A Joyful Noise (1980)

Sun Ra: A Joyful Noise (1980)

Sun Ra: A Joyful Noise (1980)

Sun Ra: A Joyful Noise (1980)


Sun Ra: A Joyful Noise (1980)