Stryker (1983)

Stryker (1983)

Stryker (1983)
BDRip 1080p | MKV | 1920x1080 | AVC@9089 kb/s | English FLAC@247 kb/s
Subs: English | 2 channels | 1 h 23 min | 5.45 GB
Genre: Action, Sci-Fi

The world's water supply has dried up due to some sort of apocalypse. A beautiful woman holds the secret to where one of the last springs being guarded by a group of Amazons. A "Road Warrior" like crew captures her and tries to make her talk through brutal torture. The hero (Styrker) unites with some of the remaining "good guys" and the Amazons and frees the woman. They go on to a "Road Warrior" type of concluding battle with the bad guys.



General
Complete name : Stryker.1983.1080p.BluRay.x264-SADPANDA\Stryker.1983.1080p.BluRay.x264-SADPANDA.mkv
Format : Matroska
Format version : Version 4 / Version 2
File size : 5.46 GiB
Duration : 1 h 23 min
Overall bit rate mode : Variable
Overall bit rate : 9 336 kb/s
Encoded date : UTC 2017-04-18 15:10:39
Writing application : mkvmerge v10.0.0 ('To Drown In You') 64bit
Writing library : libebml v1.3.4 + libmatroska v1.4.5

Video
ID : 1
Format : AVC
Format/Info : Advanced Video Codec
Format profile : High@L4.1
Format settings, CABAC : Yes
Format settings, ReFrames : 4 frames
Codec ID : V_MPEG4/ISO/AVC
Duration : 1 h 23 min
Bit rate : 9 089 kb/s
Width : 1 920 pixels
Height : 1 080 pixels
Display aspect ratio : 16:9
Frame rate mode : Constant
Frame rate : 23.976 (24000/1001) FPS
Color space : YUV
Chroma subsampling : 4:2:0
Bit depth : 8 bits
Scan type : Progressive
Bits/(Pixel*Frame) : 0.183
Stream size : 5.31 GiB (97%)
Writing library : x264 core 148 r2744 b97ae06
Encoding settings : cabac=1 / ref=4 / deblock=1:-3:-3 / analyse=0x3:0x113 / me=umh / subme=8 / psy=1 / psy_rd=1.00:0.25 / mixed_ref=1 / me_range=24 / chroma_me=1 / trellis=1 / 8x8dct=1 / cqm=0 / deadzone=21,11 / fast_pskip=1 / chroma_qp_offset=-4 / threads=30 / lookahead_threads=5 / sliced_threads=0 / nr=0 / decimate=1 / interlaced=0 / bluray_compat=0 / constrained_intra=0 / bframes=3 / b_pyramid=2 / b_adapt=1 / b_bias=0 / direct=3 / weightb=1 / open_gop=0 / weightp=2 / keyint=240 / keyint_min=24 / scenecut=40 / intra_refresh=0 / rc_lookahead=50 / rc=2pass / mbtree=1 / bitrate=9089 / ratetol=1.0 / qcomp=0.60 / qpmin=0 / qpmax=69 / qpstep=4 / cplxblur=20.0 / qblur=0.5 / ip_ratio=1.40 / aq=1:0.75
Default : Yes
Forced : No

Audio
ID : 2
Format : FLAC
Format/Info : Free Lossless Audio Codec
Codec ID : A_FLAC
Duration : 1 h 23 min
Bit rate mode : Variable
Bit rate : 247 kb/s
Channel(s) : 2 channels
Channel positions : Front: L R
Sampling rate : 48.0 kHz
Frame rate : 11.719 FPS (4096 spf)
Bit depth : 16 bits
Stream size : 148 MiB (3%)
Writing library : libFLAC 1.2.1 (UTC 2007-09-17)
Language : English
Default : Yes
Forced : No

Menu
00:00:00.000 : en:00:00:00.000
00:08:38.685 : en:00:08:38.685
00:17:44.146 : en:00:17:44.146
00:31:01.234 : en:00:31:01.234
00:41:54.804 : en:00:41:54.804
00:52:53.170 : en:00:52:53.170
01:02:40.173 : en:01:02:40.173
01:11:35.249 : en:01:11:35.249


BDRip 1080p Screenshots

Stryker (1983)

Stryker (1983)

Stryker (1983)


Come Visit My Blog (•‿•)