Stranger Than Paradise (1984) [Criterion Collection]

Stranger Than Paradise (1984) [Criterion Collection]

Stranger Than Paradise (1984) [Criterion Collection, Spine #400]
BDRip 1080p | MKV | HEVC, 1920x1080, ~ 3.8 Mbps | 1hr 29mn | 2.78 GB
English: AC3, 1 ch, 448 kbps \ English (Commentary): AC3, 1 ch, 192 kbps
BDRip 720p | MKV | HEVC, 1280x720, ~ 2.7 Mbps | 1hr 29mn | 2.02 GB
English: AC3, 1 ch, 256 kbps \ English (Commentary): AC3, 1 ch, 192 kbps
Subtitles: English
Genre: Comedy, Drama
IMDB Rating: 7.6/10 (30.151 votes)


Director: Jim Jarmusch
Writer: Jim Jarmusch
Stars: John Lurie, Eszter Balint, Richard Edson

With this breakout film, Jim Jarmusch established himself as one of the most exciting voices in the burgeoning independent-film scene, a road-movie poet with an affinity for Americana at its most offbeat. Jarmusch follows rootless Hungarian émigré Willie (John Lurie), his pal Eddie (Richard Edson), and his visiting sixteen-year-old cousin, Eva (Eszter Balint), as they drift from New York’s Lower East Side to the snowy expanses of Lake Erie and the drab beaches of Florida, always managing to make the least of wherever they end up. Structured as a series of master-shot vignettes etched in black and white by cinematographer Tom DiCillo, Stranger Than Paradise is a nonchalant masterpiece of deadpan comedy and perfectly calibrated minimalism.

Extras:
- Audio commentary from 1996 featuring Jarmusch and actor Richard Edson




General
Unique ID : 192972186415902274826663451414415790096 (0x912D175A895316FC97964D2A17E3D010)
Complete name : F:\StrangerThanParadise.84.Cr.HEVC.1p\StrangerThanParadise.84.Cr.HEVC.1p.mkv
Format : Matroska
Format version : Version 4 / Version 2
File size : 2.78 GiB
Duration : 1 h 29 min
Overall bit rate : 4 448 kb/s
Movie name : Release RSU75
Encoded date : UTC 2019-04-14 12:28:40
Writing application : mkvmerge v6.6.0 ('The Edge Of The In Between') built on Dec 1 2013 17:55:00
Writing library : libebml v1.3.0 + libmatroska v1.4.1

Video
ID : 1
Format : HEVC
Format/Info : High Efficiency Video Coding
Format profile : Main@L4@Main
Codec ID : V_MPEGH/ISO/HEVC
Bit rate : 3 719 kb/s
Width : 1 920 pixels
Height : 1 080 pixels
Display aspect ratio : 16:9
Frame rate mode : Variable
Original frame rate : 23.976 FPS
Color space : YUV
Chroma subsampling : 4:2:0
Bit depth : 8 bits
Writing library : x265 1.9+5-20f14d78dbad:[Windows][GCC 5.2.0][32 bit] 8bit
Encoding settings : wpp / ctu=64 / min-cu-size=8 / max-tu-size=32 / tu-intra-depth=1 / tu-inter-depth=1 / me=1 / subme=2 / merange=57 / no-rect / no-amp / max-merge=2 / temporal-mvp / no-early-skip / rdpenalty=0 / no-tskip / no-tskip-fast / strong-intra-smoothing / no-lossless / no-cu-lossless / no-constrained-intra / no-fast-intra / open-gop / no-temporal-layers / interlace=0 / keyint=250 / min-keyint=23 / scenecut=40 / rc-lookahead=20 / lookahead-slices=6 / bframes=4 / bframe-bias=0 / b-adapt=2 / ref=3 / limit-refs=3 / no-limit-modes / weightp / no-weightb / aq-mode=1 / qg-size=32 / aq-strength=1.00 / cbqpoffs=0 / crqpoffs=0 / rd=3 / psy-rd=2.00 / rdoq-level=0 / psy-rdoq=0.00 / signhide / deblock / sao / no-sao-non-deblock / b-pyramid / cutree / no-intra-refresh / rc=abr / bitrate=4100 / qcomp=0.60 / qpmin=0 / qpmax=51 / qpstep=4 / ipratio=1.40 / pbratio=1.30
Language : English
Default : Yes
Forced : No

Audio #1
ID : 2
Format : AC-3
Format/Info : Audio Coding 3
Commercial name : Dolby Digital
Codec ID : A_AC3
Duration : 1 h 29 min
Bit rate mode : Constant
Bit rate : 448 kb/s
Channel(s) : 1 channel
Channel layout : C
Sampling rate : 48.0 kHz
Frame rate : 31.250 FPS (1536 SPF)
Bit depth : 16 bits
Compression mode : Lossy
Stream size : 287 MiB (10%)
Language : English
Service kind : Complete Main
Default : Yes
Forced : No

Audio #2
ID : 3
Format : AC-3
Format/Info : Audio Coding 3
Commercial name : Dolby Digital
Codec ID : A_AC3
Duration : 1 h 29 min
Bit rate mode : Constant
Bit rate : 192 kb/s
Channel(s) : 1 channel
Channel layout : C
Sampling rate : 48.0 kHz
Frame rate : 31.250 FPS (1536 SPF)
Bit depth : 16 bits
Compression mode : Lossy
Stream size : 123 MiB (4%)
Title : Commentary
Language : English
Service kind : Complete Main
Default : No
Forced : No

Text
ID : 4
Format : PGS
Muxing mode : zlib
Codec ID : S_HDMV/PGS
Codec ID/Info : Picture based subtitle format used on BDs/HD-DVDs
Language : English
Default : Yes
Forced : No

Menu
00:00:00.000 : en:Chapter 01
00:05:27.910 : en:Chapter 02
00:11:14.882 : en:Chapter 03
00:21:58.608 : en:Chapter 04
00:30:14.813 : en:Chapter 05
00:33:56.034 : en:Chapter 06
00:37:15.650 : en:Chapter 07
00:44:12.066 : en:Chapter 08
00:46:41.131 : en:Chapter 09
00:50:42.956 : en:Chapter 10
00:53:06.725 : en:Chapter 11
00:57:29.737 : en:Chapter 12
01:02:27.076 : en:Chapter 13
01:05:43.814 : en:Chapter 14
01:09:32.793 : en:Chapter 15
01:17:37.944 : en:Chapter 16
01:23:20.120 : en:Chapter 17





General
Unique ID : 209534991190427995996098084322294321510 (0x9DA2F8AD371F7CBC8FE6707CE8535166)
Complete name : F:\StrangerThanParadise.84.Cr.HEVC.7p\StrangerThanParadise.84.Cr.HEVC.7p.mkv
Format : Matroska
Format version : Version 4 / Version 2
File size : 2.02 GiB
Duration : 1 h 29 min
Overall bit rate : 3 239 kb/s
Movie name : Release RSU75
Encoded date : UTC 2019-04-14 13:12:44
Writing application : mkvmerge v6.6.0 ('The Edge Of The In Between') built on Dec 1 2013 17:55:00
Writing library : libebml v1.3.0 + libmatroska v1.4.1

Video
ID : 1
Format : HEVC
Format/Info : High Efficiency Video Coding
Format profile : Main@L3.1@Main
Codec ID : V_MPEGH/ISO/HEVC
Bit rate : 2 727 kb/s
Width : 1 280 pixels
Height : 720 pixels
Display aspect ratio : 16:9
Frame rate mode : Variable
Original frame rate : 23.976 FPS
Color space : YUV
Chroma subsampling : 4:2:0
Bit depth : 8 bits
Writing library : x265 1.9+5-20f14d78dbad:[Windows][GCC 5.2.0][32 bit] 8bit
Encoding settings : wpp / ctu=64 / min-cu-size=8 / max-tu-size=32 / tu-intra-depth=1 / tu-inter-depth=1 / me=1 / subme=2 / merange=57 / no-rect / no-amp / max-merge=2 / temporal-mvp / no-early-skip / rdpenalty=0 / no-tskip / no-tskip-fast / strong-intra-smoothing / no-lossless / no-cu-lossless / no-constrained-intra / no-fast-intra / open-gop / no-temporal-layers / interlace=0 / keyint=250 / min-keyint=23 / scenecut=40 / rc-lookahead=20 / lookahead-slices=4 / bframes=4 / bframe-bias=0 / b-adapt=2 / ref=3 / limit-refs=3 / no-limit-modes / weightp / no-weightb / aq-mode=1 / qg-size=32 / aq-strength=1.00 / cbqpoffs=0 / crqpoffs=0 / rd=3 / psy-rd=2.00 / rdoq-level=0 / psy-rdoq=0.00 / signhide / deblock / sao / no-sao-non-deblock / b-pyramid / cutree / no-intra-refresh / rc=abr / bitrate=3000 / qcomp=0.60 / qpmin=0 / qpmax=51 / qpstep=4 / ipratio=1.40 / pbratio=1.30
Language : English
Default : Yes
Forced : No

Audio #1
ID : 2
Format : AC-3
Format/Info : Audio Coding 3
Commercial name : Dolby Digital
Codec ID : A_AC3
Duration : 1 h 29 min
Bit rate mode : Constant
Bit rate : 256 kb/s
Channel(s) : 1 channel
Channel layout : C
Sampling rate : 48.0 kHz
Frame rate : 31.250 FPS (1536 SPF)
Bit depth : 16 bits
Compression mode : Lossy
Stream size : 164 MiB (8%)
Language : English
Service kind : Complete Main
Default : Yes
Forced : No

Audio #2
ID : 3
Format : AC-3
Format/Info : Audio Coding 3
Commercial name : Dolby Digital
Codec ID : A_AC3
Duration : 1 h 29 min
Bit rate mode : Constant
Bit rate : 192 kb/s
Channel(s) : 1 channel
Channel layout : C
Sampling rate : 48.0 kHz
Frame rate : 31.250 FPS (1536 SPF)
Bit depth : 16 bits
Compression mode : Lossy
Stream size : 123 MiB (6%)
Title : Commentary
Language : English
Service kind : Complete Main
Default : No
Forced : No

Text
ID : 4
Format : PGS
Muxing mode : zlib
Codec ID : S_HDMV/PGS
Codec ID/Info : Picture based subtitle format used on BDs/HD-DVDs
Language : English
Default : Yes
Forced : No

Menu
00:00:00.000 : en:Chapter 01
00:05:27.910 : en:Chapter 02
00:11:14.882 : en:Chapter 03
00:21:58.608 : en:Chapter 04
00:30:14.813 : en:Chapter 05
00:33:56.034 : en:Chapter 06
00:37:15.650 : en:Chapter 07
00:44:12.066 : en:Chapter 08
00:46:41.131 : en:Chapter 09
00:50:42.956 : en:Chapter 10
00:53:06.725 : en:Chapter 11
00:57:29.737 : en:Chapter 12
01:02:27.076 : en:Chapter 13
01:05:43.814 : en:Chapter 14
01:09:32.793 : en:Chapter 15
01:17:37.944 : en:Chapter 16
01:23:20.120 : en:Chapter 17




Screenshots 1080p (click to enlarge to original size):

Stranger Than Paradise (1984) [Criterion Collection]

Stranger Than Paradise (1984) [Criterion Collection]

Stranger Than Paradise (1984) [Criterion Collection]



Screenshots 720p (click to enlarge to original size):

Stranger Than Paradise (1984) [Criterion Collection]




–––––––––––––––––––––––––––––––––––––––-
>>> "Criterion Collection" <<< OR >>> "HEVC" <<< OR >>> "Comedy, Drama" <<<
–––––––––––––––––––––––––––––––––––––––-
>>> Visit Blog RSU75 Here <<<
–––––––––––––––––––––––––––––––––––––––-