Sting of Death (1966)

Sting of Death (1966)

Sting of Death (1966)
BDRip 1080p | MKV | 1 h 20 min | 7.96 GB | 1920x1080 | AVC@13.9 Mb/s
English AAC@132 kb/s, 1 ch | English AC3@192 kb/s, 2 ch (Commentary)
Subs: English
Genre: Horror, Sci-Fi

A deformed man working for a marine biologist takes revenge on the people that mock him by experimenting with a deadly jellyfish.



General
Sting.of.Death.1966.1080p.BluRay.AAC.x264.mkv
Format : Matroska
Format version : Version 4 / Version 2
File size : 7.96 GB
Duration : 1 h 20 min
Overall bit rate : 14.2 Mb/s
Movie name : Sting of Death [1966] 1080p BluRay
Encoded date : UTC 2021-01-10 21:00:11
Writing application : mkvmerge v41.0.0 ('Smarra') 64-bit
Writing library : libebml v1.3.9 + libmatroska v1.5.2

Video
ID : 1
Format : AVC
Format/Info : Advanced Video Codec
Format profile : High@L4.1
Format settings, CABAC : Yes
Format settings, ReFrames : 4 frames
Codec ID : V_MPEG4/ISO/AVC
Duration : 1 h 20 min
Bit rate : 13.9 Mb/s
Width : 1920 pixels
Height : 1080 pixels
Display aspect ratio : 16:9
Frame rate mode : Constant
Frame rate : 23.976 (24000/1001) FPS
Color space : YUV
Chroma subsampling : 4:2:0
Bit depth : 8 bits
Scan type : Progressive
Bits/(Pixel*Frame) : 0.280
Stream size : 7.78 GB (98%)
Writing library : x264 core 157 r2935 545de2f
Encoding settings : cabac=1 / ref=4 / deblock=1:-3:-3 / analyse=0x3:0x133 / me=umh / subme=10 / psy=1 / psy_rd=1.00:0.00 / mixed_ref=1 / me_range=32 / chroma_me=1 / trellis=2 / 8x8dct=1 / cqm=0 / deadzone=21,11 / fast_pskip=0 / chroma_qp_offset=-2 / threads=12 / lookahead_threads=3 / sliced_threads=0 / nr=0 / decimate=0 / interlaced=0 / bluray_compat=0 / constrained_intra=0 / bframes=16 / b_pyramid=2 / b_adapt=2 / b_bias=0 / direct=3 / weightb=1 / open_gop=0 / weightp=2 / keyint=240 / keyint_min=24 / scenecut=40 / intra_refresh=0 / rc_lookahead=60 / rc=crf / mbtree=0 / crf=23.0 / qcomp=0.60 / qpmin=0 / qpmax=69 / qpstep=4 / vbv_maxrate=62500 / vbv_bufsize=78125 / crf_max=0.0 / nal_hrd=none / filler=0 / ip_ratio=1.40 / pb_ratio=1.30 / aq=2:1.00
Default : Yes
Forced : No
Color range : Limited
Color primaries : BT.709
Transfer characteristics : BT.709
Matrix coefficients : BT.709

Audio #1
ID : 2
Format : AAC
Format/Info : Advanced Audio Codec
Format profile : LC
Codec ID : A_AAC
Duration : 1 h 20 min
Bit rate : 132 kb/s
Channel(s) : 1 channel
Channel positions : Front: C
Sampling rate : 48.0 kHz
Frame rate : 46.875 FPS (1024 spf)
Compression mode : Lossy
Stream size : 76.9 MB (1%)
Language : English
Default : Yes
Forced : No

Audio #2
ID : 3
Format : AC-3
Format/Info : Audio Coding 3
Mode extension : CM (complete main)
Format settings, Endianness : Big
Codec ID : A_AC3
Duration : 1 h 20 min
Bit rate mode : Constant
Bit rate : 192 kb/s
Channel(s) : 2 channels
Channel positions : Front: L R
Sampling rate : 48.0 kHz
Frame rate : 31.250 FPS (1536 spf)
Bit depth : 16 bits
Compression mode : Lossy
Stream size : 110 MB (1%)
Title : Commentary with writer/director William Grefé and filmmaker/historian Frank Henenlotter
Language : English
Default : No
Forced : No

Text #1
ID : 4
Format : UTF-8
Codec ID : S_TEXT/UTF8
Codec ID/Info : UTF-8 Plain Text
Duration : 1 h 18 min
Bit rate : 45 b/s
Count of elements : 637
Stream size : 26.3 KiB (0%)
Language : English
Default : No
Forced : No

Text #2
ID : 5
Format : UTF-8
Codec ID : S_TEXT/UTF8
Codec ID/Info : UTF-8 Plain Text
Duration : 1 h 19 min
Bit rate : 47 b/s
Count of elements : 685
Stream size : 27.3 KiB (0%)
Title : SDH
Language : English
Default : No
Forced : No

Menu
00:00:00.000 : en:Chapter 01
00:09:38.161 : en:Chapter 02
00:17:57.743 : en:Chapter 03
00:23:38.792 : en:Chapter 04
00:31:34.559 : en:Chapter 05
00:40:36.225 : en:Chapter 06
00:48:39.750 : en:Chapter 07
00:57:03.629 : en:Chapter 08
01:02:38.672 : en:Chapter 09
01:11:09.474 : en:Chapter 10



BDRip 1080p Screenshots

Sting of Death (1966)

Sting of Death (1966)

Sting of Death (1966)


Come Visit My Blog (•‿•)