Splendor in the Grass (1961)

Splendor in the Grass (1961)

Splendor in the Grass (1961)
WEBRip 1080p | MKV | 1920x1080 | AVC@13.6 Mb/s | English AC3@224 kb/s
Subs: English | 2 channels | 2 h 3 min | 11.9 GB
Genre: Drama, Romance

A fragile Kansas girl's love for a handsome young man from the town's most powerful family drives her to heartbreak and madness.

IMDB - Won 1 Oscar. Another 2 wins & 7 nominations


General
Complete name : Splendor.in.the.Grass.1961.1080p.WEBRip.DD2.0.x264-SbR\Splendor.in.the.Grass.1961.1080p.WEBRip.DD2.0.x264-SbR.mkv
Format : Matroska
Format version : Version 2
File size : 11.9 GiB
Duration : 2 h 3 min
Overall bit rate mode : Variable
Overall bit rate : 13.8 Mb/s
Encoded date : UTC 2017-04-15 09:52:05
Writing application : mkvmerge v10.0.0 ('To Drown In You') 64bit
Writing library : libebml v1.3.4 + libmatroska v1.4.5
Cover : Yes
Attachments : cover.jpg

Video
ID : 1
Format : AVC
Format/Info : Advanced Video Codec
Format profile : High@L4
Format settings, CABAC : Yes
Format settings, ReFrames : 4 frames
Codec ID : V_MPEG4/ISO/AVC
Duration : 2 h 3 min
Bit rate mode : Variable
Bit rate : 13.6 Mb/s
Maximum bit rate : 15.0 Mb/s
Width : 1 920 pixels
Height : 1 080 pixels
Display aspect ratio : 16:9
Frame rate mode : Constant
Frame rate : 23.976 (24000/1001) FPS
Color space : YUV
Chroma subsampling : 4:2:0
Bit depth : 8 bits
Scan type : Progressive
Bits/(Pixel*Frame) : 0.273
Stream size : 11.7 GiB (98%)
Writing library : x264 core 148 r2623 d5b2374
Encoding settings : cabac=1 / ref=4 / deblock=1:-1:-1 / analyse=0x3:0x133 / me=umh / subme=9 / psy=1 / psy_rd=1.00:0.15 / mixed_ref=1 / me_range=24 / chroma_me=1 / trellis=2 / 8x8dct=1 / cqm=0 / deadzone=21,11 / fast_pskip=1 / chroma_qp_offset=-3 / threads=34 / lookahead_threads=5 / sliced_threads=0 / nr=150 / decimate=1 / interlaced=0 / bluray_compat=0 / constrained_intra=0 / bframes=8 / b_pyramid=2 / b_adapt=2 / b_bias=0 / direct=3 / weightb=1 / open_gop=0 / weightp=2 / keyint=120 / keyint_min=61 / scenecut=0 / intra_refresh=0 / rc_lookahead=120 / rc=crf / mbtree=1 / crf=18.0 / qcomp=0.60 / qpmin=0 / qpmax=69 / qpstep=4 / vbv_maxrate=15000 / vbv_bufsize=31250 / crf_max=0.0 / nal_hrd=vbr / filler=0 / ip_ratio=1.40 / aq=3:1.00
Language : English
Default : Yes
Forced : No
Color range : Limited
Color primaries : BT.709
Transfer characteristics : BT.709
Matrix coefficients : BT.709

Audio
ID : 2
Format : E-AC-3
Format/Info : Enhanced Audio Coding 3
Format settings, Endianness : Big
Codec ID : A_EAC3
Duration : 2 h 3 min
Bit rate mode : Constant
Bit rate : 224 kb/s
Channel(s) : 2 channels
Channel positions : Front: L R
Sampling rate : 48.0 kHz
Frame rate : 187.500 FPS (256 spf)
Compression mode : Lossy
Stream size : 199 MiB (2%)
Language : English
Default : Yes
Forced : No

Text #1
ID : 3
Format : UTF-8
Codec ID : S_TEXT/UTF8
Codec ID/Info : UTF-8 Plain Text
Duration : 2 h 1 min
Bit rate : 62 b/s
Count of elements : 1533
Stream size : 55.5 KiB (0%)
Language : English
Default : No
Forced : No

Text #2
ID : 4
Format : UTF-8
Codec ID : S_TEXT/UTF8
Codec ID/Info : UTF-8 Plain Text
Duration : 2 h 2 min
Bit rate : 66 b/s
Count of elements : 1644
Stream size : 59.5 KiB (0%)
Title : SDH
Language : English
Default : No
Forced : No

Menu
00:00:00.000 : en:01. Credits
00:01:29.104 : en:02. Raging Falls and Passions
00:02:48.976 : en:03. What Nice Girls Should Feel
00:08:46.124 : en:04. Bud's Future
00:12:43.862 : en:05. No Real Nourishment
00:14:57.286 : en:06. On A Pedestal
00:19:48.953 : en:07. Girls Like Juanita
00:21:09.450 : en:08. Boy Crazy
00:27:37.296 : en:09. Bud's Choice
00:33:17.594 : en:10. Double Date
00:37:46.696 : en:11. You'll Find Out
00:41:10.275 : en:12. New Year's Eve
00:50:09.313 : en:13. Make Him Well
00:54:19.271 : en:14. Doc Smiley
00:57:22.579 : en:15. Wordsworth
01:02:37.769 : en:16. Toots' Chance
01:03:59.851 : en:17. Good Little Girl
01:08:44.427 : en:18. Graduation Dance
01:13:36.093 : en:19. No Longer Nice
01:17:25.322 : en:20. Despair At The Falls
01:20:42.144 : en:21. Somebody Was Here
01:24:18.694 : en:22. Yale; Angelina
01:28:02.042 : en:23. Family Visit
01:35:34.786 : en:24. Bad Wall Street News
01:37:16.721 : en:25. Not A Very Good Listener
01:40:03.012 : en:26. The Nightclub
01:41:39.400 : en:27. Anything You Wan
01:44:44.460 : en:28. Stamper's Plunge
01:46:52.546 : en:29. Departure Day
01:49:24.156 : en:30. Home From The Hospital
01:52:50.863 : en:31. Mrs. Loomis' Last Grasp
01:55:34.568 : en:32. Bittersweet Reunion
02:00:16.516 : en:33. No Thought Of Happiness
02:03:06.853 : en:34. Wordsworth Redux


WEBRip 1080p Screenshots

Splendor in the Grass (1961)

Splendor in the Grass (1961)

Splendor in the Grass (1961)

Splendor in the Grass (1961)


Come Visit My Blog (•‿•)