Smithereens (1982) [Criterion Collection]

Smithereens (1982) [Criterion Collection]

Smithereens (1982) [Criterion Collection, Spine #941]
BDRip 1080p | MKV | AVC 1800x1080, ~ 3.9 Mbps | 1hr 33mn | 3.01 GB
English: Dolby AC3, 1 ch, 448 kbps; English(Commentary): Dolby AC3, 1 ch, 192 kbps
BDRip 720p | MKV | AVC 1200x720, ~ 2.8 Mbps | 1hr 33mn | 2.18 GB
English: Dolby AC3, 1 ch, 256 kbps; English(Commentary): Dolby AC3, 1 ch, 192 kbps
Subtitles: English
Genre: Drama, Music
IMDB Rating: 6.8/10 (1.290 votes)


Director: Susan Seidelman
Writers: Susan Seidelman (story), Ron Nyswaner (story)
Stars: Susan Berman, Brad Rijn, Richard Hell

Susan Seidelman established her distinctive vision of New York City with this debut feature, the lo-fi original for her vibrant portraits of women reinventing themselves. After escaping New Jersey, the quintessentially punk Wren (Susan Berman)—a spark plug in fishnets—moves to the city with the mission of becoming famous. When not pasting up self-promotional flyers or hanging at the Peppermint Lounge, she’s getting involved with Paul (Brad Rinn), the nicest guy to ever live in a van next to the highway, and Eric (Richard Hell), an aloof rocker. Shot on 16 mm film that captures the grit and glam of downtown in the 1980s, with an alternately moody and frenetic soundtrack by the Feelies and others, Smithereens—the first American independent film to compete for the Palme d’Or—is an unfaded snapshot of a bygone era.

Extras:
- Audio commentary from 2004 featuring Seidelman




General
Unique ID : 219399457373609309644876659908220958881 (0xA50ECC68C7A8087E816FE9CDCA0638A1)
Complete name : F:\Smithereens.82.Cr.HEVC.1p\Smithereens.82.Cr.HEVC.1p.mkv
Format : Matroska
Format version : Version 4 / Version 2
File size : 3.01 GiB
Duration : 1 h 33 min
Overall bit rate : 4 612 kb/s
Movie name : Release RSU75
Encoded date : UTC 2019-03-18 05:22:52
Writing application : mkvmerge v6.6.0 ('The Edge Of The In Between') built on Dec 1 2013 17:55:00
Writing library : libebml v1.3.0 + libmatroska v1.4.1

Video
ID : 1
Format : HEVC
Format/Info : High Efficiency Video Coding
Format profile : Main@L4@Main
Codec ID : V_MPEGH/ISO/HEVC
Bit rate : 3 880 kb/s
Width : 1 800 pixels
Height : 1 080 pixels
Display aspect ratio : 5:3
Frame rate mode : Variable
Original frame rate : 23.976 FPS
Color space : YUV
Chroma subsampling : 4:2:0
Bit depth : 8 bits
Writing library : x265 1.9+5-20f14d78dbad:[Windows][GCC 5.2.0][32 bit] 8bit
Encoding settings : wpp / ctu=64 / min-cu-size=8 / max-tu-size=32 / tu-intra-depth=1 / tu-inter-depth=1 / me=1 / subme=2 / merange=57 / no-rect / no-amp / max-merge=2 / temporal-mvp / no-early-skip / rdpenalty=0 / no-tskip / no-tskip-fast / strong-intra-smoothing / no-lossless / no-cu-lossless / no-constrained-intra / no-fast-intra / open-gop / no-temporal-layers / interlace=0 / keyint=250 / min-keyint=23 / scenecut=40 / rc-lookahead=20 / lookahead-slices=6 / bframes=4 / bframe-bias=0 / b-adapt=2 / ref=3 / limit-refs=3 / no-limit-modes / weightp / no-weightb / aq-mode=1 / qg-size=32 / aq-strength=1.00 / cbqpoffs=0 / crqpoffs=0 / rd=3 / psy-rd=2.00 / rdoq-level=0 / psy-rdoq=0.00 / signhide / deblock / sao / no-sao-non-deblock / b-pyramid / cutree / no-intra-refresh / rc=abr / bitrate=4000 / qcomp=0.60 / qpmin=0 / qpmax=51 / qpstep=4 / ipratio=1.40 / pbratio=1.30
Language : English
Default : Yes
Forced : No

Audio #1
ID : 2
Format : AC-3
Format/Info : Audio Coding 3
Commercial name : Dolby Digital
Codec ID : A_AC3
Duration : 1 h 33 min
Bit rate mode : Constant
Bit rate : 448 kb/s
Channel(s) : 1 channel
Channel layout : C
Sampling rate : 48.0 kHz
Frame rate : 31.250 FPS (1536 SPF)
Bit depth : 16 bits
Compression mode : Lossy
Stream size : 300 MiB (10%)
Language : English
Service kind : Complete Main
Default : Yes
Forced : No

Audio #2
ID : 3
Format : AC-3
Format/Info : Audio Coding 3
Commercial name : Dolby Digital
Codec ID : A_AC3
Duration : 1 h 33 min
Bit rate mode : Constant
Bit rate : 192 kb/s
Channel(s) : 1 channel
Channel layout : C
Sampling rate : 48.0 kHz
Frame rate : 31.250 FPS (1536 SPF)
Bit depth : 16 bits
Compression mode : Lossy
Stream size : 128 MiB (4%)
Title : Commentary
Language : English
Service kind : Complete Main
Default : No
Forced : No

Text
ID : 4
Format : PGS
Muxing mode : zlib
Codec ID : S_HDMV/PGS
Codec ID/Info : Picture based subtitle format used on BDs/HD-DVDs
Language : English
Default : Yes
Forced : No

Menu
00:00:00.000 : en:Chapter 01
00:07:24.444 : en:Chapter 02
00:13:01.071 : en:Chapter 03
00:17:06.608 : en:Chapter 04
00:24:27.507 : en:Chapter 05
00:27:41.576 : en:Chapter 06
00:34:32.320 : en:Chapter 07
00:39:43.798 : en:Chapter 08
00:46:09.767 : en:Chapter 09
00:58:07.025 : en:Chapter 10
01:07:06.272 : en:Chapter 11
01:10:35.022 : en:Chapter 12
01:19:39.608 : en:Chapter 13
01:27:43.258 : en:Chapter 14





General
Unique ID : 210262097543974465704540411615871841784 (0x9E2F01C9A2A5411E89147E5EF62935F8)
Complete name : F:\Smithereens.82.Cr.HEVC.7p\Smithereens.82.Cr.HEVC.7p.mkv
Format : Matroska
Format version : Version 4 / Version 2
File size : 2.18 GiB
Duration : 1 h 33 min
Overall bit rate : 3 330 kb/s
Movie name : Release RSU75
Encoded date : UTC 2019-03-18 04:53:03
Writing application : mkvmerge v6.6.0 ('The Edge Of The In Between') built on Dec 1 2013 17:55:00
Writing library : libebml v1.3.0 + libmatroska v1.4.1

Video
ID : 1
Format : HEVC
Format/Info : High Efficiency Video Coding
Format profile : Main@L3.1@Main
Codec ID : V_MPEGH/ISO/HEVC
Bit rate : 2 816 kb/s
Width : 1 200 pixels
Height : 720 pixels
Display aspect ratio : 5:3
Frame rate mode : Variable
Original frame rate : 23.976 FPS
Color space : YUV
Chroma subsampling : 4:2:0
Bit depth : 8 bits
Writing library : x265 1.9+5-20f14d78dbad:[Windows][GCC 5.2.0][32 bit] 8bit
Encoding settings : wpp / ctu=64 / min-cu-size=8 / max-tu-size=32 / tu-intra-depth=1 / tu-inter-depth=1 / me=1 / subme=2 / merange=57 / no-rect / no-amp / max-merge=2 / temporal-mvp / no-early-skip / rdpenalty=0 / no-tskip / no-tskip-fast / strong-intra-smoothing / no-lossless / no-cu-lossless / no-constrained-intra / no-fast-intra / open-gop / no-temporal-layers / interlace=0 / keyint=250 / min-keyint=23 / scenecut=40 / rc-lookahead=20 / lookahead-slices=4 / bframes=4 / bframe-bias=0 / b-adapt=2 / ref=3 / limit-refs=3 / no-limit-modes / weightp / no-weightb / aq-mode=1 / qg-size=32 / aq-strength=1.00 / cbqpoffs=0 / crqpoffs=0 / rd=3 / psy-rd=2.00 / rdoq-level=0 / psy-rdoq=0.00 / signhide / deblock / sao / no-sao-non-deblock / b-pyramid / cutree / no-intra-refresh / rc=abr / bitrate=2900 / qcomp=0.60 / qpmin=0 / qpmax=51 / qpstep=4 / ipratio=1.40 / pbratio=1.30
Language : English
Default : Yes
Forced : No

Audio #1
ID : 2
Format : AC-3
Format/Info : Audio Coding 3
Commercial name : Dolby Digital
Codec ID : A_AC3
Duration : 1 h 33 min
Bit rate mode : Constant
Bit rate : 256 kb/s
Channel(s) : 1 channel
Channel layout : C
Sampling rate : 48.0 kHz
Frame rate : 31.250 FPS (1536 SPF)
Bit depth : 16 bits
Compression mode : Lossy
Stream size : 171 MiB (8%)
Language : English
Service kind : Complete Main
Default : Yes
Forced : No

Audio #2
ID : 3
Format : AC-3
Format/Info : Audio Coding 3
Commercial name : Dolby Digital
Codec ID : A_AC3
Duration : 1 h 33 min
Bit rate mode : Constant
Bit rate : 192 kb/s
Channel(s) : 1 channel
Channel layout : C
Sampling rate : 48.0 kHz
Frame rate : 31.250 FPS (1536 SPF)
Bit depth : 16 bits
Compression mode : Lossy
Stream size : 128 MiB (6%)
Title : Commentary
Language : English
Service kind : Complete Main
Default : No
Forced : No

Text
ID : 4
Format : PGS
Muxing mode : zlib
Codec ID : S_HDMV/PGS
Codec ID/Info : Picture based subtitle format used on BDs/HD-DVDs
Language : English
Default : Yes
Forced : No

Menu
00:00:00.000 : en:Chapter 01
00:07:24.444 : en:Chapter 02
00:13:01.071 : en:Chapter 03
00:17:06.608 : en:Chapter 04
00:24:27.507 : en:Chapter 05
00:27:41.576 : en:Chapter 06
00:34:32.320 : en:Chapter 07
00:39:43.798 : en:Chapter 08
00:46:09.767 : en:Chapter 09
00:58:07.025 : en:Chapter 10
01:07:06.272 : en:Chapter 11
01:10:35.022 : en:Chapter 12
01:19:39.608 : en:Chapter 13
01:27:43.258 : en:Chapter 14




Screenshots 1080p (click to enlarge to original size):

Smithereens (1982) [Criterion Collection]

Smithereens (1982) [Criterion Collection]

Smithereens (1982) [Criterion Collection]


Smithereens (1982) [Criterion Collection]



Screenshots 720p (click to enlarge to original size):

Smithereens (1982) [Criterion Collection]




–––––––––––––––––––––––––––––––––––––––-
>>> "Criterion Collection" <<<OR >>> "Music" <<<OR >>> "HEVC" <<<
–––––––––––––––––––––––––––––––––––––––-
>>> Visit Blog RSU75 Here <<<
–––––––––––––––––––––––––––––––––––––––-