Show Boat (1936) [The Criterion Collection]

Show Boat (1936) [The Criterion Collection]

Show Boat (1936)
BRRip | AVI | 1 h 53 min | 1.44 GB | 548x400 | XviD@1599 kb/s
English MP3@192 kb/s, 1 ch
BDRip 720p | MKV | 1 h 53 min | 8.09 GB | 986x720 | AVC@9493 kb/s
English FLAC@587 kb/s, 1 ch | English AAC@76.3 kb/s, 1 ch (Commentary)
BDRip 1080p | MKV | 1 h 53 min | 15.5 GB | 1480x1080 | AVC@18.8 Mb/s
English FLAC@587 kb/s, 1 ch | English AAC@76.3 kb/s, 1 ch (Commentary)
Subs: English
Genre: Comedy | Drama | Musical | Romance

Despite her mother's objections, the naive young daughter of a show boat captain is thrust into the limelight as the company's new leading lady.



General
Show.Boat.1936.BRRip.XviD.MP3-XVID.avi
Format : AVI
Format/Info : Audio Video Interleave
Format profile : OpenDML
File size : 1.44 GB
Duration : 1 h 53 min
Overall bit rate : 1806 kb/s
Writing application : Lavf58.20.100

Video
ID : 0
Format : MPEG-4 Visual
Format profile : Simple@L5
Format settings, BVOP : No
Format settings, QPel : No
Format settings, GMC : No warppoints
Format settings, Matrix : Default (H.263)
Codec ID : XVID
Codec ID/Hint : XviD
Duration : 1 h 53 min
Bit rate : 1599 kb/s
Width : 548 pixels
Height : 400 pixels
Display aspect ratio : 4:3
Original display aspect ratio : 1.370
Frame rate : 23.976 (24000/1001) FPS
Color space : YUV
Chroma subsampling : 4:2:0
Bit depth : 8 bits
Scan type : Progressive
Compression mode : Lossy
Bits/(Pixel*Frame) : 0.304
Stream size : 1.27 GB (89%)
Writing library : Lavc58.35.100

Audio
ID : 1
Format : MPEG Audio
Format version : Version 1
Format profile : Layer 3
Codec ID : 55
Codec ID/Hint : MP3
Duration : 1 h 53 min
Bit rate mode : Constant
Bit rate : 192 kb/s
Channel(s) : 1 channel
Sampling rate : 48.0 kHz
Compression mode : Lossy
Stream size : 156 MB (11%)
Alignment : Aligned on interleaves
Interleave, duration : 24 ms (0.58 video frame)
Interleave, preload duration : 24 ms
Writing library : LAMEUU‚F!ؾ‹0&‰©vE


General
Show.Boat.1936.720p.BluRay.x264-PSYCHD.mkv
Format : Matroska
Format version : Version 4 / Version 2
File size : 8.09 GB
Duration : 1 h 53 min
Overall bit rate mode : Variable
Overall bit rate : 10.2 Mb/s
Writing application : mkvmerge v44.0.0 ('Domino') 64-bit
Writing library : libebml v1.3.10 + libmatroska v1.5.2

Video
ID : 1
Format : AVC
Format/Info : Advanced Video Codec
Format profile : High@L4.1
Format settings, CABAC : Yes
Format settings, ReFrames : 8 frames
Codec ID : V_MPEG4/ISO/AVC
Duration : 1 h 53 min
Bit rate : 9493 kb/s
Width : 986 pixels
Height : 720 pixels
Display aspect ratio : 4:3
Frame rate mode : Constant
Frame rate : 23.976 (24000/1001) FPS
Color space : YUV
Chroma subsampling : 4:2:0
Bit depth : 8 bits
Scan type : Progressive
Bits/(Pixel*Frame) : 0.558
Stream size : 7.55 GB (93%)
Writing library : x264 core 160 r3000 33f9e14
Encoding settings : cabac=1 / ref=8 / deblock=1:-3:-3 / analyse=0x3:0x133 / me=umh / subme=9 / psy=1 / psy_rd=1.15:0.00 / mixed_ref=1 / me_range=24 / chroma_me=1 / trellis=2 / 8x8dct=1 / cqm=0 / deadzone=21,11 / fast_pskip=0 / chroma_qp_offset=-2 / threads=22 / lookahead_threads=1 / sliced_threads=0 / nr=0 / decimate=0 / interlaced=0 / bluray_compat=0 / constrained_intra=0 / bframes=3 / b_pyramid=2 / b_adapt=2 / b_bias=0 / direct=3 / weightb=1 / open_gop=0 / weightp=2 / keyint=250 / keyint_min=23 / scenecut=40 / intra_refresh=0 / rc=crf / mbtree=0 / crf=20.9 / qcomp=0.60 / qpmin=0 / qpmax=69 / qpstep=4 / ip_ratio=1.40 / pb_ratio=1.30 / aq=3:0.65
Default : Yes
Forced : No
Color range : Limited
Matrix coefficients : BT.709

Audio #1
ID : 2
Format : FLAC
Format/Info : Free Lossless Audio Codec
Codec ID : A_FLAC
Duration : 1 h 53 min
Bit rate mode : Variable
Bit rate : 587 kb/s
Channel(s) : 1 channel
Channel positions : Front: C
Sampling rate : 48.0 kHz
Frame rate : 11.719 FPS (4096 spf)
Bit depth : 24 bits
Stream size : 479 MB (6%)
Title : Flac 1.0
Writing library : libFLAC 1.2.1 (UTC 2007-09-17)
Language : English
Default : Yes
Forced : No

Audio #2
ID : 6
Format : AAC
Format/Info : Advanced Audio Codec
Format profile : LC
Codec ID : A_AAC
Duration : 1 h 53 min
Bit rate : 76.3 kb/s
Channel(s) : 1 channel
Channel positions : Front: C
Sampling rate : 48.0 kHz
Frame rate : 46.875 FPS (1024 spf)
Compression mode : Lossy
Delay relative to video : 9 ms
Stream size : 62.2 MB (1%)
Title : Commentary featuring American-musical historian Miles Kreuger
Language : English
Default : No
Forced : No

Text #1
ID : 3
Format : UTF-8
Codec ID : S_TEXT/UTF8
Codec ID/Info : UTF-8 Plain Text
Duration : 1 h 51 min
Bit rate : 81 b/s
Count of elements : 1840
Stream size : 66.7 KiB (0%)
Title : Stripped SRT
Language : English
Default : No
Forced : No

Text #2
ID : 4
Format : UTF-8
Codec ID : S_TEXT/UTF8
Codec ID/Info : UTF-8 Plain Text
Duration : 1 h 52 min
Bit rate : 84 b/s
Count of elements : 1947
Stream size : 69.5 KiB (0%)
Title : SDH SRT
Language : English
Default : No
Forced : No

Text #3
ID : 5
Format : PGS
Muxing mode : zlib
Codec ID : S_HDMV/PGS
Codec ID/Info : Picture based subtitle format used on BDs/HD-DVDs
Duration : 1 h 52 min
Bit rate : 66.7 kb/s
Count of elements : 3895
Stream size : 53.8 MB (1%)
Title : English SDH
Language : English
Default : No
Forced : No

Menu
00:00:00.000 : en:Chapter 01
00:08:53.616 : en:Chapter 02
00:10:43.935 : en:Chapter 03
00:15:17.416 : en:Chapter 04
00:19:51.065 : en:Chapter 05
00:24:59.790 : en:Chapter 06
00:36:08.917 : en:Chapter 07
00:38:46.533 : en:Chapter 08
00:45:49.038 : en:Chapter 09
00:56:43.567 : en:Chapter 10
00:59:45.749 : en:Chapter 11
01:02:50.475 : en:Chapter 12
01:05:10.740 : en:Chapter 13
01:08:47.790 : en:Chapter 14
01:13:26.444 : en:Chapter 15
01:16:31.587 : en:Chapter 16
01:21:47.194 : en:Chapter 17
01:24:45.497 : en:Chapter 18
01:30:05.734 : en:Chapter 19
01:34:25.869 : en:Chapter 20
01:36:44.924 : en:Chapter 21
01:39:18.161 : en:Chapter 22
01:42:28.893 : en:Chapter 23
01:46:37.766 : en:Chapter 24
01:51:16.044 : en:Chapter 25


General
Show.Boat.1936.1080p.BluRay.x264-PSYCHD.mkv
Format : Matroska
Format version : Version 4 / Version 2
File size : 15.5 GB
Duration : 1 h 53 min
Overall bit rate mode : Variable
Overall bit rate : 19.5 Mb/s
Writing application : mkvmerge v44.0.0 ('Domino') 64-bit
Writing library : libebml v1.3.10 + libmatroska v1.5.2

Video
ID : 1
Format : AVC
Format/Info : Advanced Video Codec
Format profile : High@L4.1
Format settings, CABAC : Yes
Format settings, ReFrames : 5 frames
Codec ID : V_MPEG4/ISO/AVC
Duration : 1 h 53 min
Bit rate : 18.8 Mb/s
Width : 1480 pixels
Height : 1080 pixels
Display aspect ratio : 1.370
Frame rate mode : Constant
Frame rate : 23.976 (24000/1001) FPS
Color space : YUV
Chroma subsampling : 4:2:0
Bit depth : 8 bits
Scan type : Progressive
Bits/(Pixel*Frame) : 0.492
Stream size : 15.0 GB (97%)
Writing library : x264 core 160 r3000 33f9e14
Encoding settings : cabac=1 / ref=5 / deblock=1:-3:-3 / analyse=0x3:0x133 / me=umh / subme=9 / psy=1 / psy_rd=1.15:0.00 / mixed_ref=1 / me_range=32 / chroma_me=1 / trellis=2 / 8x8dct=1 / cqm=0 / deadzone=21,11 / fast_pskip=0 / chroma_qp_offset=-2 / threads=34 / lookahead_threads=2 / sliced_threads=0 / nr=0 / decimate=0 / interlaced=0 / bluray_compat=0 / constrained_intra=0 / bframes=3 / b_pyramid=2 / b_adapt=2 / b_bias=0 / direct=3 / weightb=1 / open_gop=0 / weightp=2 / keyint=250 / keyint_min=23 / scenecut=40 / intra_refresh=0 / rc=crf / mbtree=0 / crf=22.3 / qcomp=0.60 / qpmin=0 / qpmax=69 / qpstep=4 / ip_ratio=1.40 / pb_ratio=1.30 / aq=3:0.65
Default : Yes
Forced : No
Color range : Limited
Matrix coefficients : BT.709

Audio #1
ID : 2
Format : FLAC
Format/Info : Free Lossless Audio Codec
Codec ID : A_FLAC
Duration : 1 h 53 min
Bit rate mode : Variable
Bit rate : 587 kb/s
Channel(s) : 1 channel
Channel positions : Front: C
Sampling rate : 48.0 kHz
Frame rate : 11.719 FPS (4096 spf)
Bit depth : 24 bits
Stream size : 479 MB (3%)
Title : Flac 1.0
Writing library : libFLAC 1.2.1 (UTC 2007-09-17)
Language : English
Default : Yes
Forced : No

Audio #2
ID : 6
Format : AAC
Format/Info : Advanced Audio Codec
Format profile : LC
Codec ID : A_AAC
Duration : 1 h 53 min
Bit rate : 76.3 kb/s
Channel(s) : 1 channel
Channel positions : Front: C
Sampling rate : 48.0 kHz
Frame rate : 46.875 FPS (1024 spf)
Compression mode : Lossy
Delay relative to video : 9 ms
Stream size : 62.2 MB (0%)
Title : Commentary featuring American-musical historian Miles Kreuger
Language : English
Default : No
Forced : No

Text #1
ID : 3
Format : UTF-8
Codec ID : S_TEXT/UTF8
Codec ID/Info : UTF-8 Plain Text
Duration : 1 h 51 min
Bit rate : 81 b/s
Count of elements : 1840
Stream size : 66.7 KiB (0%)
Title : Stripped SRT
Language : English
Default : No
Forced : No

Text #2
ID : 4
Format : UTF-8
Codec ID : S_TEXT/UTF8
Codec ID/Info : UTF-8 Plain Text
Duration : 1 h 52 min
Bit rate : 84 b/s
Count of elements : 1947
Stream size : 69.5 KiB (0%)
Title : SDH SRT
Language : English
Default : No
Forced : No

Text #3
ID : 5
Format : PGS
Muxing mode : zlib
Codec ID : S_HDMV/PGS
Codec ID/Info : Picture based subtitle format used on BDs/HD-DVDs
Duration : 1 h 52 min
Bit rate : 66.7 kb/s
Count of elements : 3895
Stream size : 53.8 MB (0%)
Title : English SDH
Language : English
Default : No
Forced : No

Menu
00:00:00.000 : en:Chapter 01
00:08:53.616 : en:Chapter 02
00:10:43.935 : en:Chapter 03
00:15:17.416 : en:Chapter 04
00:19:51.065 : en:Chapter 05
00:24:59.790 : en:Chapter 06
00:36:08.917 : en:Chapter 07
00:38:46.533 : en:Chapter 08
00:45:49.038 : en:Chapter 09
00:56:43.567 : en:Chapter 10
00:59:45.749 : en:Chapter 11
01:02:50.475 : en:Chapter 12
01:05:10.740 : en:Chapter 13
01:08:47.790 : en:Chapter 14
01:13:26.444 : en:Chapter 15
01:16:31.587 : en:Chapter 16
01:21:47.194 : en:Chapter 17
01:24:45.497 : en:Chapter 18
01:30:05.734 : en:Chapter 19
01:34:25.869 : en:Chapter 20
01:36:44.924 : en:Chapter 21
01:39:18.161 : en:Chapter 22
01:42:28.893 : en:Chapter 23
01:46:37.766 : en:Chapter 24
01:51:16.044 : en:Chapter 25



BRRip Screenshots

Show Boat (1936) [The Criterion Collection]

Show Boat (1936) [The Criterion Collection]

Show Boat (1936) [The Criterion Collection]


BDRip 720p Screenshots

Show Boat (1936) [The Criterion Collection]

Show Boat (1936) [The Criterion Collection]

Show Boat (1936) [The Criterion Collection]


BDRip 1080p Screenshots

Show Boat (1936) [The Criterion Collection]

Show Boat (1936) [The Criterion Collection]

Show Boat (1936) [The Criterion Collection]


Come Visit My Blog (•‿•)