The Adventures of Sherlock Holmes and Dr. Watson. Ep4: Mortal Fight (1980)

The Adventures of Sherlock Holmes and Dr. Watson. Ep4: Mortal Fight (1980)

The Adventures of Sherlock Holmes and Dr. Watson. Ep4: Mortal Fight / Priklyucheniya Sherloka Kholmsa i doktora Vatsona: Smertelnaya skhvatka / Приключения Шерлока Холмса и доктора Ватсона. Ч4. Смертельная схватка (1980)
DVDRip | MKV | 1hr 04mn | AVC, ~1,9 Mbps | 720x576 | 1.04 GB
Russian: AC3, 6 ch, 384 Kbps
Subtitles: English, Russian
Genre: Crime, Mystery
IMDB Rating: 8.6/10 (2.044 votes)
En.wikipedia.org


Director: Igor Maslennikov
Writers: Arthur Conan Doyle (stories), Vladimir Valutskiy (screenplay)
Stars: Vasiliy Livanov, Vitali Solomin, Rina Zelyonaya

Country: Soviet Union, Russia, Россия

The Adventures of Sherlock Holmes and Dr. Watson is a series of Soviet television films portraying Arthur Conan Doyle's fictional English detective, starting in 1979. They were directed by Igor Maslennikov. In 2006, Vasily Livanov became an Honorary MBE (Member of the Order of the British Empire) for his portrayal of Sherlock Holmes.

Part 4: Mortal Fight / Smertelnaya skhvatka: After upsetting the criminal underground in 'the Master Blackmailer' case, Sherlock Holmes has to face his archenemy: Prof. Moriarty.





General
Unique ID : 251323413068595135959404120458871161507 (0xBD1320F22F3620148689C9751677C2A3)
Complete name : L:\SherlockHolmes.Ru.Dr.E4.MortalFight\SherlockHolmes.Ru.Dr.E4.MortalFight.mkv
Format : Matroska
Format version : Version 4 / Version 2
File size : 1.04 GiB
Duration : 1 h 4 min
Overall bit rate : 2 302 kb/s
Movie name : Release RSU75
Encoded date : UTC 2017-10-28 15:25:22
Writing application : mkvmerge v6.6.0 ('The Edge Of The In Between') built on Dec 1 2013 17:55:00
Writing library : libebml v1.3.0 + libmatroska v1.4.1

Video
ID : 1
Format : AVC
Format/Info : Advanced Video Codec
Format profile : High@L3
Format settings : CABAC / 4 Ref Frames
Format settings, CABAC : Yes
Format settings, RefFrames : 4 frames
Codec ID : V_MPEG4/ISO/AVC
Duration : 1 h 4 min
Bit rate : 1 901 kb/s
Width : 720 pixels
Height : 576 pixels
Display aspect ratio : 4:3
Frame rate mode : Constant
Frame rate : 25.000 FPS
Standard : PAL
Color space : YUV
Chroma subsampling : 4:2:0
Bit depth : 8 bits
Scan type : Progressive
Bits/(Pixel*Frame) : 0.183
Stream size : 865 MiB (81%)
Writing library : x264 core 144 r2533 c8a773e
Encoding settings : cabac=1 / ref=4 / deblock=1:0:0 / analyse=0x3:0x113 / me=umh / subme=8 / psy=1 / psy_rd=1.00:0.00 / mixed_ref=1 / me_range=24 / chroma_me=1 / trellis=1 / 8x8dct=1 / cqm=0 / deadzone=21,11 / fast_pskip=1 / chroma_qp_offset=-2 / threads=3 / lookahead_threads=1 / sliced_threads=0 / nr=0 / decimate=1 / interlaced=0 / bluray_compat=0 / constrained_intra=0 / bframes=3 / b_pyramid=0 / b_adapt=2 / b_bias=0 / direct=3 / weightb=1 / open_gop=0 / weightp=2 / keyint=250 / keyint_min=25 / scenecut=40 / intra_refresh=0 / rc_lookahead=40 / rc=abr / mbtree=1 / bitrate=1901 / ratetol=1.0 / qcomp=0.60 / qpmin=10 / qpmax=51 / qpstep=4 / ip_ratio=1.41 / aq=1:1.00
Language : English
Default : Yes
Forced : No

Audio
ID : 2
Format : AC-3
Format/Info : Audio Coding 3
Format settings, Endianness : Big
Codec ID : A_AC3
Duration : 1 h 4 min
Bit rate mode : Constant
Bit rate : 384 kb/s
Channel(s) : 6 channels
Channel positions : Front: L C R, Side: L R, LFE
Sampling rate : 48.0 kHz
Frame rate : 31.250 FPS (1536 SPF)
Bit depth : 16 bits
Compression mode : Lossy
Delay relative to video : -40 ms
Stream size : 177 MiB (17%)
Language : Russian
Service kind : Complete Main
Default : Yes
Forced : No

Text #1
ID : 3
Format : VobSub
Muxing mode : zlib
Codec ID : S_VOBSUB
Codec ID/Info : Picture based subtitle format used on DVDs
Language : English
Default : Yes
Forced : No

Text #2
ID : 4
Format : VobSub
Muxing mode : zlib
Codec ID : S_VOBSUB
Codec ID/Info : Picture based subtitle format used on DVDs
Language : Russian
Default : No
Forced : No

Menu
00:00:00.080 : en:Chapter 01
00:02:32.240 : en:Chapter 02
00:06:13.400 : en:Chapter 03
00:09:22.040 : en:Chapter 04
00:12:56.360 : en:Chapter 05
00:19:33.200 : en:Chapter 06
00:24:52.160 : en:Chapter 07
00:28:12.560 : en:Chapter 08
00:31:48.320 : en:Chapter 09
00:37:26.360 : en:Chapter 10
00:39:22.760 : en:Chapter 11
00:43:40.880 : en:Chapter 12
00:49:05.480 : en:Chapter 13
00:54:19.520 : en:Chapter 14
00:59:23.240 : en:Chapter 15
01:03:01.400 : en:Chapter 16




Screenshots (click to enlarge to original size):

The Adventures of Sherlock Holmes and Dr. Watson. Ep4: Mortal Fight (1980)

The Adventures of Sherlock Holmes and Dr. Watson. Ep4: Mortal Fight (1980)

The Adventures of Sherlock Holmes and Dr. Watson. Ep4: Mortal Fight (1980)


The Adventures of Sherlock Holmes and Dr. Watson. Ep4: Mortal Fight (1980)



–––––––––––––––––––––––––––––––––––––––-
>>> "Sherlock Holmes" <<< OR >>> "Other Russian and Soviet movies" <<<
–––––––––––––––––––––––––––––––––––––––-
>>> Visit Blog RSU75 Here <<<
–––––––––––––––––––––––––––––––––––––––-