Sharpe's Eagle (1993)

Sharpe's Eagle (1993)

Sharpe's Eagle (1993)
BDRip | MKV | 1920x1080 | English | Sub: Dutch | H264 @ 8863 kbps | AC-3 @ 640 kbps | 1 h 38 min | 6.55 GiB
Genre: Action, Adventure

Sharpe is a Captain saddled with the South Essex, a battalion run by incompetents and filled with soldiers who have never been in battle. When the South Essex loses its colours (its regimental flag), Sharpe vows to save the honor of the regiment by capturing a French Imperial standard: an eagle.

General
Unique ID : 200638908125191365052141640120888108002 (0x96F1A5EAFAA66F4FB7F399DC54EAA3E2)
Complete name : ./Sharpes.Eagle.1993.1080p.BluRay.x264-TiTANS.Subs.NL.mkv
Format : Matroska
Format version : Version 4 / Version 2
File size : 6.55 GiB
Duration : 1 h 38 min
Overall bit rate : 9 502 kb/s
Movie name : Sharpes.Eagle.1993.1080p.BluRay.x264-TiTANS.Subs.NL
Encoded date : UTC 2017-11-05 19:10:52
Writing application : mkvmerge v17.0.0 ('Be Ur Friend') 32-bit
Writing library : libebml v1.3.5 + libmatroska v1.4.8
Cover : Yes
Attachments : cover.png

Video
ID : 1
Format : AVC
Format/Info : Advanced Video Codec
Format profile : High@L4.1
Format settings : CABAC / 4 Ref Frames
Format settings, CABAC : Yes
Format settings, RefFrames : 4 frames
Codec ID : V_MPEG4/ISO/AVC
Duration : 1 h 38 min
Bit rate : 8 863 kb/s
Width : 1 920 pixels
Height : 1 080 pixels
Display aspect ratio : 16:9
Frame rate mode : Constant
Frame rate : 25.000 FPS
Color space : YUV
Chroma subsampling : 4:2:0
Bit depth : 8 bits
Scan type : Progressive
Bits/(Pixel*Frame) : 0.171
Stream size : 6.11 GiB (93%)
Writing library : x264 core 107 r1772 c9dad9e
Encoding settings : cabac=1 / ref=4 / deblock=1:0:0 / analyse=0x3:0x133 / me=umh / subme=7 / psy=1 / psy_rd=1.00:0.00 / mixed_ref=1 / me_range=16 / chroma_me=1 / trellis=1 / 8x8dct=1 / cqm=0 / deadzone=21,11 / fast_pskip=0 / chroma_qp_offset=-2 / threads=12 / sliced_threads=0 / nr=0 / decimate=1 / interlaced=0 / constrained_intra=0 / bframes=3 / b_pyramid=2 / b_adapt=1 / b_bias=0 / direct=1 / weightb=1 / open_gop=0 / weightp=2 / keyint=250 / keyint_min=25 / scenecut=40 / intra_refresh=0 / rc_lookahead=40 / rc=2pass / mbtree=1 / bitrate=8863 / ratetol=1.0 / qcomp=0.60 / qpmin=10 / qpmax=51 / qpstep=4 / cplxblur=20.0 / qblur=0.5 / ip_ratio=1.40 / aq=1:1.00
Default : No
Forced : No

Audio
ID : 2
Format : AC-3
Format/Info : Audio Coding 3
Format settings, Endianness : Big
Codec ID : A_AC3
Duration : 1 h 38 min
Bit rate mode : Constant
Bit rate : 640 kb/s
Channel(s) : 6 channels
Channel positions : Front: L C R, Side: L R, LFE
Sampling rate : 48.0 kHz
Frame rate : 31.250 FPS (1536 SPF)
Bit depth : 16 bits
Compression mode : Lossy
Stream size : 452 MiB (7%)
Language : English
Service kind : Complete Main
Default : Yes
Forced : No

Text
ID : 3
Format : UTF-8
Codec ID : S_TEXT/UTF8
Codec ID/Info : UTF-8 Plain Text
Duration : 1 h 35 min
Bit rate : 59 b/s
Count of elements : 1174
Stream size : 41.5 KiB (0%)
Language : Dutch
Default : Yes
Forced : No

Menu
00:00:00.000 : en:Sharpe
00:10:00.000 : en:Sharpe
00:20:00.000 : en:Sharpe
00:30:00.000 : en:Sharpe
00:40:00.000 : en:Sharpe
00:50:00.000 : en:Sharpe
01:00:00.000 : en:Sharpe
01:10:00.000 : en:Sharpe
01:20:00.000 : en:Sharpe
01:30:00.000 : en:Sharpe





Sharpe's Eagle (1993)


Sharpe's Eagle (1993)


Sharpe's Eagle (1993)


Sharpe's Eagle (1993)