Time to Love / Sevmek zamani (1965)

Time to Love / Sevmek zamani (1965)

Time to Love / Sevmek zamani (1965)
DVD Video | 1hr 25mn | PAL 4:3 | 720x576 | 6.88 Gb
DVDRip | MKV | AVC 720x576, ~ 1.9 Mbps | 1hr 25mn | 1.26 GB
Turkish (Türkçe): AC3, 2 ch, 192 kbps | Subtitles: English, Turkish (Türkçe)
Genre: Drama, Romance



Director: Metin Erksan
Writer: Metin Erksan
Stars: Müsfik Kenter, Sema Özcan, Süleyman Tekcan

Halil who is a painter falls in love with a picture which belongs to a daughter of a mansion's owner. One day, the girl comes into the mansion while Halil is looking at the picture.

Extras:
- Interview with Metin Erksan (1:20:25)
- Biography, Filmography, Photo Gallery, Trailer




Title: SevmekZamani.1965.D9
Size: 6.88 Gb ( 7 209 010,00 KBytes ) - DVD-9
Enabled regions: 1, 2, 3, 4, 5, 6, 7, 8

VTS_01 :
Play Length: 00:00:10
Video: PAL 4:3 (720x576) VBR
Audio:
English (Dolby AC3, 2 ch)

VTS_02 :
Play Length: 00:00:05
Video: PAL 4:3 (720x576) VBR
Audio:
English (Dolby AC3, 2 ch)

VTS_03 :
Play Length: 00:00:05
Video: PAL 4:3 (720x576) VBR
Audio:
English (Dolby AC3, 2 ch)

VTS_04 :
Play Length: 00:00:01
Video: PAL 16:9 (720x576) VBR, Auto Letterboxed
Audio:
English (Dolby AC3, 2 ch)

VTS_05 :
Play Length: 01:25:36
Video: PAL 4:3 (720x576) VBR
Audio:
Turkish (Dolby AC3, 2 ch)
Subtitles:
Turkish
English

VTS_06 :
Play Length: 01:20:25
Video: PAL 4:3 (720x576) VBR
Audio:
Turkish (Dolby AC3, 2 ch)

VTS_07 :
Play Length: 00:00:10
Video: PAL 4:3 (720x576) VBR
Audio:
Turkish (Dolby AC3, 2 ch)

VTS_08 :
Play Length: 00:00:49
Video: PAL 4:3 (720x576) VBR
Audio:
Turkish (Dolby AC3, 2 ch)

VTS_09 :
Play Length: 00:03:30
Video: PAL 4:3 (720x576) VBR
Audio:
Turkish (Dolby AC3, 2 ch)





General
Unique ID : 197228894752150263940531533910896587090 (0x9460E74732E047DD9012DFA248A0B152)
Complete name : F:\SevmekZamani.1965.Dr\SevmekZamani.1965.Dr.mkv
Format : Matroska
Format version : Version 4
File size : 1.26 GiB
Duration : 1 h 25 min
Overall bit rate : 2 100 kb/s
Movie name : Release RSU75
Encoded date : UTC 2020-04-21 02:58:56
Writing application : mkvmerge v6.6.0 ('The Edge Of The In Between') built on Dec 1 2013 17:55:00
Writing library : libebml v1.3.0 + libmatroska v1.4.1

Video
ID : 1
Format : AVC
Format/Info : Advanced Video Codec
Format profile : High@L4.1
Format settings : CABAC / 4 Ref Frames
Format settings, CABAC : Yes
Format settings, Reference fra : 4 frames
Codec ID : V_MPEG4/ISO/AVC
Duration : 1 h 25 min
Bit rate : 1 900 kb/s
Width : 720 pixels
Height : 576 pixels
Display aspect ratio : 4:3
Frame rate mode : Constant
Frame rate : 25.000 FPS
Standard : PAL
Color space : YUV
Chroma subsampling : 4:2:0
Bit depth : 8 bits
Scan type : Progressive
Bits/(Pixel*Frame) : 0.183
Stream size : 1.12 GiB (89%)
Writing library : x264 core 148 r2643 5c65704
Encoding settings : cabac=1 / ref=4 / deblock=1:0:0 / analyse=0x3:0x113 / me=umh / subme=8 / psy=1 / psy_rd=1.00:0.00 / mixed_ref=1 / me_range=24 / chroma_me=1 / trellis=1 / 8x8dct=1 / cqm=0 / deadzone=21,11 / fast_pskip=1 / chroma_qp_offset=-2 / threads=3 / lookahead_threads=1 / sliced_threads=0 / nr=0 / decimate=1 / interlaced=0 / bluray_compat=0 / constrained_intra=0 / bframes=3 / b_pyramid=0 / b_adapt=2 / b_bias=0 / direct=3 / weightb=1 / open_gop=0 / weightp=2 / keyint=250 / keyint_min=25 / scenecut=40 / intra_refresh=0 / rc_lookahead=40 / rc=abr / mbtree=1 / bitrate=1900 / ratetol=1.0 / qcomp=0.60 / qpmin=10 / qpmax=51 / qpstep=4 / ip_ratio=1.41 / aq=1:1.00
Language : English
Default : Yes
Forced : No
Duration_Source : General_Duration

Audio
ID : 2
Format : AC-3
Format/Info : Audio Coding 3
Commercial name : Dolby Digital
Codec ID : A_AC3
Duration : 1 h 25 min
Bit rate mode : Constant
Bit rate : 192 kb/s
Channel(s) : 2 channels
Channel layout : L R
Sampling rate : 48.0 kHz
Frame rate : 31.250 FPS (1536 SPF)
Compression mode : Lossy
Stream size : 118 MiB (9%)
Title : Stereo
Language : Turkish
Service kind : Complete Main
Default : Yes
Forced : No
Duration_Source : General_Duration

Text #1
ID : 3
Format : VobSub
Muxing mode : zlib
Codec ID : S_VOBSUB
Codec ID/Info : Picture based subtitle format used on DVDs
Language : Turkish
Default : Yes
Forced : No

Text #2
ID : 4
Format : VobSub
Muxing mode : zlib
Codec ID : S_VOBSUB
Codec ID/Info : Picture based subtitle format used on DVDs
Language : English
Default : No
Forced : No

Menu
00:00:00.000 : en:Chapter 01
00:01:19.200 : en:Chapter 02
00:05:56.640 : en:Chapter 03
00:11:06.680 : en:Chapter 04
00:24:11.680 : en:Chapter 05
00:36:11.200 : en:Chapter 06
00:44:40.400 : en:Chapter 07
00:54:11.680 : en:Chapter 08
01:00:04.480 : en:Chapter 09
01:06:02.560 : en:Chapter 10
01:11:49.040 : en:Chapter 11
01:24:50.840 : en:Chapter 12




Screenshots DVD (click to enlarge to original size):

Time to Love / Sevmek zamani (1965)

Time to Love / Sevmek zamani (1965)

Time to Love / Sevmek zamani (1965)

Time to Love / Sevmek zamani (1965)

Time to Love / Sevmek zamani (1965)



Thanks to original uploader


Screenshots DVDRip (click to enlarge to original size):

Time to Love / Sevmek zamani (1965)






If you like this release please visit my blog
In it you will find "DVD Video", "DVDRip" releases in different languages