Seminole Uprising (1955)

Seminole Uprising (1955)

Seminole Uprising (1955)
BDRip | MKV | 1912x1080 | English | H264 @ 11688 kbps | FLAC @ 518 kbps | 1 h 11 min | 6.12 GiB
Subtitles: French
Genre: War, Western

An angry Seminole chief wages war after his tribe is relocated from Florida to the American West.

Seminole.Uprising.1955.1080p.BluRay.FLAC.x264-HANDJOB.mkv (6.1 GB)



General
Unique ID : 162998976872863679561497939391619966142 (0x7AA0760722EC2B7A8C0D937858B2A4BE)
Complete name : ./Seminole.Uprising.1955.1080p.BluRay.FLAC.x264-HANDJOB.mkv
Format : Matroska
Format version : Version 4 / Version 2
File size : 6.12 GiB
Duration : 1 h 11 min
Overall bit rate mode : Variable
Overall bit rate : 12.2 Mb/s
Movie name : Seminole Uprising [1955] 1080p BluRay - HJ
Encoded date : UTC 2019-08-20 20:40:19
Writing application : mkvmerge v36.0.0 ('Is That Jazz?') 64-bit
Writing library : libebml v1.3.9 + libmatroska v1.5.2

Video
ID : 1
Format : AVC
Format/Info : Advanced Video Codec
Format profile : High@L4.1
Format settings : CABAC / 4 Ref Frames
Format settings, CABAC : Yes
Format settings, RefFrames : 4 frames
Codec ID : V_MPEG4/ISO/AVC
Duration : 1 h 11 min
Bit rate : 11.7 Mb/s
Width : 1 912 pixels
Height : 1 080 pixels
Display aspect ratio : 16:9
Frame rate mode : Constant
Frame rate : 23.976 (24000/1001) FPS
Color space : YUV
Chroma subsampling : 4:2:0
Bit depth : 8 bits
Scan type : Progressive
Bits/(Pixel*Frame) : 0.236
Stream size : 5.86 GiB (96%)
Writing library : x264 core 157 r2935 545de2f
Encoding settings : cabac=1 / ref=4 / deblock=1:-3:-3 / analyse=0x3:0x133 / me=umh / subme=10 / psy=1 / psy_rd=1.00:0.00 / mixed_ref=1 / me_range=32 / chroma_me=1 / trellis=2 / 8x8dct=1 / cqm=0 / deadzone=21,11 / fast_pskip=0 / chroma_qp_offset=-2 / threads=12 / lookahead_threads=1 / sliced_threads=0 / nr=0 / decimate=0 / interlaced=0 / bluray_compat=0 / constrained_intra=0 / bframes=6 / b_pyramid=2 / b_adapt=2 / b_bias=0 / direct=3 / weightb=1 / open_gop=0 / weightp=2 / keyint=240 / keyint_min=24 / scenecut=40 / intra_refresh=0 / rc_lookahead=60 / rc=crf / mbtree=0 / crf=21.0 / qcomp=0.60 / qpmin=0 / qpmax=69 / qpstep=4 / vbv_maxrate=62500 / vbv_bufsize=78125 / crf_max=0.0 / nal_hrd=none / filler=0 / ip_ratio=1.40 / pb_ratio=1.30 / aq=2:1.00
Default : Yes
Forced : No
Color range : Limited
Color primaries : BT.709
Transfer characteristics : BT.709
Matrix coefficients : BT.709

Audio
ID : 2
Format : FLAC
Format/Info : Free Lossless Audio Codec
Codec ID : A_FLAC
Duration : 1 h 11 min
Bit rate mode : Variable
Bit rate : 519 kb/s
Channel(s) : 2 channels
Channel positions : Front: L R
Sampling rate : 48.0 kHz
Frame rate : 11.719 FPS (4096 SPF)
Bit depth : 16 bits
Stream size : 266 MiB (4%)
Writing library : libFLAC 1.3.1 (UTC 2014-11-25)
Language : English
Default : Yes
Forced : No

Text
ID : 3
Format : UTF-8
Codec ID : S_TEXT/UTF8
Codec ID/Info : UTF-8 Plain Text
Duration : 1 h 11 min
Bit rate : 66 b/s
Count of elements : 864
Stream size : 34.8 KiB (0%)
Language : French
Default : No
Forced : No

Menu
00:00:00.000 : :Chapter 1
00:07:05.175 : :Chapter 2
00:13:30.977 : :Chapter 3
00:21:57.358 : :Chapter 4
00:25:33.574 : :Chapter 5
00:31:08.784 : :Chapter 6
00:36:39.864 : :Chapter 7
00:41:52.010 : :Chapter 8
00:48:11.555 : :Chapter 9
00:54:24.011 : :Chapter 10
01:00:24.496 : :Chapter 11
01:04:54.474 : :Chapter 12





Seminole Uprising (1955)


Seminole Uprising (1955)


Seminole Uprising (1955)


Seminole Uprising (1955)


Seminole Uprising (1955)