Scarface (1983)

Scarface (1983)

Scarface (1983)
BDRip | MKV | 1920x816 | English | H265 @ 3285 kbps | DTS @ 1509 kbps | 2 h 49 min | 5.81 GiB
Subtitles: English
Genre: Action, Crime, Drama, Thriller

After getting a green card in exchange for assassinating a Cuban government official, Tony Montana stakes a claim on the drug trade in Miami. Viciously murdering anyone who stands in his way, Tony eventually becomes the biggest drug lord in the state, controlling nearly all the cocaine that comes through Miami. But increased pressure from the police, wars with Colombian drug cartels and his own drug-fueled paranoia serve to fuel the flames of his eventual downfall.

29bd0f5b1b47438aae06e7ad2302930e.mkv (5.8 GB)



General
Unique ID : 50183314689405295361858603295538104270 (0x25C0F470D8939FBCB9EF8FF524EB47CE)
Complete name : ./29bd0f5b1b47438aae06e7ad2302930e.mkv
Format : Matroska
Format version : Version 4 / Version 2
File size : 5.81 GiB
Duration : 2 h 49 min
Overall bit rate : 4 892 kb/s
Encoded date : UTC 2020-01-13 22:55:24
Writing application : mkvmerge v42.0.0 ('Overtime') 64-bit
Writing library : libebml v1.3.10 + libmatroska v1.5.2

Video
ID : 1
Format : HEVC
Format/Info : High Efficiency Video Coding
Format profile : Main 10@L4@Main
Codec ID : V_MPEGH/ISO/HEVC
Duration : 2 h 49 min
Bit rate : 3 286 kb/s
Width : 1 920 pixels
Height : 816 pixels
Display aspect ratio : 2.35:1
Frame rate mode : Constant
Frame rate : 23.976 (24000/1001) FPS
Color space : YUV
Chroma subsampling : 4:2:0
Bit depth : 10 bits
Bits/(Pixel*Frame) : 0.087
Stream size : 3.90 GiB (67%)
Writing library : x265 2.9:[Windows][GCC 8.2.0][64 bit] 10bit
Encoding settings : cpuid=1111039 / frame-threads=4 / numa-pools=16 / wpp / no-pmode / no-pme / no-psnr / no-ssim / log-level=2 / input-csp=1 / input-res=1920x816 / interlace=0 / total-frames=0 / level-idc=0 / high-tier=1 / uhd-bd=0 / ref=3 / no-allow-non-conformance / no-repeat-headers / annexb / no-aud / no-hrd / info / hash=0 / no-temporal-layers / open-gop / min-keyint=24 / keyint=240 / gop-lookahead=0 / bframes=4 / b-adapt=2 / b-pyramid / bframe-bias=0 / rc-lookahead=20 / lookahead-slices=5 / scenecut=40 / radl=0 / no-intra-refresh / ctu=64 / min-cu-size=8 / no-rect / no-amp / max-tu-size=32 / tu-inter-depth=1 / tu-intra-depth=1 / limit-tu=0 / rdoq-level=0 / dynamic-rd=0.00 / no-ssim-rd / signhide / no-tskip / nr-intra=0 / nr-inter=0 / no-constrained-intra / strong-intra-smoothing / max-merge=2 / limit-refs=3 / no-limit-modes / me=1 / subme=2 / merange=57 / temporal-mvp / weightp / no-weightb / no-analyze-src-pics / deblock=0:0 / sao / no-sao-non-deblock / rd=3 / no-early-skip / rskip / no-fast-intra / no-tskip-fast / no-cu-lossless / no-b-intra / no-splitrd-skip / rdpenalty=0 / psy-rd=2.00 / psy-rdoq=0.00 / no-rd-refine / no-lossless / cbqpoffs=0 / crqpoffs=0 / rc=crf / crf=23.0 / qcomp=0.60 / qpstep=4 / stats-write=0 / stats-read=0 / ipratio=1.40 / pbratio=1.30 / aq-mode=1 / aq-strength=1.00 / cutree / zone-count=0 / no-strict-cbr / qg-size=32 / no-rc-grain / qpmax=69 / qpmin=0 / no-const-vbv / sar=1 / overscan=0 / videoformat=5 / range=0 / colorprim=1 / transfer=1 / colormatrix=1 / chromaloc=0 / display-window=0 / max-cll=0,0 / min-luma=0 / max-luma=1023 / log2-max-poc-lsb=8 / vui-timing-info / vui-hrd-info / slices=1 / no-opt-qp-pps / no-opt-ref-list-length-pps / no-multi-pass-opt-rps / scenecut-bias=0.05 / no-opt-cu-delta-qp / no-aq-motion / no-hdr / no-hdr-opt / no-dhdr10-opt / no-idr-recovery-sei / analysis-reuse-level=5 / scale-factor=0 / refine-intra=0 / refine-inter=0 / refine-mv=0 / no-limit-sao / ctu-info=0 / no-lowpass-dct / refine-mv-type=0 / copy-pic=1 / max-ausize-factor=1.0 / no-dynamic-refine / no-single-sei
Default : Yes
Forced : No
Color range : Limited
Color primaries : BT.709
Transfer characteristics : BT.709
Matrix coefficients : BT.709

Audio
ID : 2
Format : DTS
Format/Info : Digital Theater Systems
Mode : 16
Format settings, Endianness : Big
Codec ID : A_DTS
Duration : 2 h 49 min
Bit rate mode : Constant
Bit rate : 1 509 kb/s
Channel(s) : 6 channels
Channel positions : Front: L C R, Side: L R, LFE
Sampling rate : 48.0 kHz
Frame rate : 93.750 FPS (512 SPF)
Bit depth : 24 bits
Compression mode : Lossy
Stream size : 1.79 GiB (31%)
Title : Surround
Language : English
Default : Yes
Forced : No

Text
ID : 3
Format : PGS
Muxing mode : zlib
Codec ID : S_HDMV/PGS
Codec ID/Info : Picture based subtitle format used on BDs/HD-DVDs
Language : English
Default : No
Forced : No

Menu
00:00:00.000 : :A Political Prisoner (Main Titles)
00:08:11.658 : :Freedom Town
00:10:55.280 : :A Killing For a Green Card
00:13:40.236 : :The Good Life
00:15:43.067 : :A New Job
00:20:58.340 : :Columbians and Chainsaws
00:29:51.373 : :Mr. Lopez
00:33:09.404 : :Elvira
00:34:42.581 : :A Night in Babylon
00:43:13.257 : :How to Pick Up Girls
00:46:46.137 : :Going in Style
00:50:45.334 : :The Prodigal Returns
00:59:02.789 : :The Drug Lord
01:04:15.685 : :Revenge
01:08:20.513 : :Serious Money
01:12:57.582 : :A Proposal
01:17:17.925 : :Shakedown
01:23:33.217 : :Brotherly Love
01:28:48.323 : :Two Guns For Tony
01:33:44.327 : :A Hostile Takeover
01:43:31.497 : :Prosperity
01:47:01.707 : :Laundry Bills
01:51:48.410 : :Philosophy in the Bathtub
01:57:19.991 : :The Cost of Doing Business
02:02:43.106 : :Problems and Solutions
02:07:08.204 : :Dinner Conversation
02:13:58.405 : :Prelude to Murder
02:16:04.448 : :No Women and Children
02:21:46.081 : :Severing Business Ties
02:24:22.779 : :The End of the Honeymoon
02:30:37.862 : :Preparing for War
02:35:14.889 : :Gina's Offering
02:37:33.152 : :Siege
02:40:04.303 : :Montana's Last Stand
02:43:21.125 : :End Credits





Scarface (1983)


Scarface (1983)


Scarface (1983)


Scarface (1983)


Scarface (1983)