Scarecrow (1973)

Scarecrow (1973)

Scarecrow (1973)
BDRip 720p | MKV | 1280x536 | AVC@5460 kb/s | English DTS@1509 kb/s
Subs: English | 2 channels | 1 h 52 min | 5.47 GB
BDRip 1080p | MKV | 1920x800 | AVC@12.4 Mb/s | English DTS@1509 kb/s
Subs: English | 2 channels | 1 h 52 min | 10.9 GB
Genre: Drama

Max, an ex-con drifter with a penchant for brawling is amused by Lion, a homeless ex-sailor, and they partner up as they head east together.

IMDB - 4 wins.


General
Scarecrow.1973.720p.BluRay.x264-SiNNERS\Scarecrow.1973.720p.BluRay.x264-SiNNERS.mkv
Format : Matroska
Format version : Version 4 / Version 2
File size : 5.47 GiB
Duration : 1 h 52 min
Overall bit rate : 6 970 kb/s
Encoded date : UTC 2017-10-29 20:20:16
Writing application : mkvmerge v6.8.0 ('Theme for Great Cities') 64bit built on Mar 2 2014 21:34:26
Writing library : libebml v1.3.0 + libmatroska v1.4.1

Video
ID : 1
Format : AVC
Format/Info : Advanced Video Codec
Format profile : High@L4.1
Format settings, CABAC : Yes
Format settings, ReFrames : 9 frames
Codec ID : V_MPEG4/ISO/AVC
Duration : 1 h 52 min
Bit rate : 5 460 kb/s
Width : 1 280 pixels
Height : 536 pixels
Display aspect ratio : 2.40:1
Frame rate mode : Constant
Frame rate : 23.976 (24000/1001) FPS
Color space : YUV
Chroma subsampling : 4:2:0
Bit depth : 8 bits
Scan type : Progressive
Bits/(Pixel*Frame) : 0.332
Stream size : 4.17 GiB (76%)
Writing library : x264 core 152 r2851 ba24899
Encoding settings : cabac=1 / ref=9 / deblock=1:-3:-3 / analyse=0x3:0x113 / me=umh / subme=8 / psy=1 / psy_rd=1.00:0.00 / mixed_ref=1 / me_range=16 / chroma_me=1 / trellis=2 / 8x8dct=1 / cqm=0 / deadzone=21,11 / fast_pskip=0 / chroma_qp_offset=-2 / threads=17 / lookahead_threads=2 / sliced_threads=0 / nr=0 / decimate=1 / interlaced=0 / bluray_compat=0 / constrained_intra=0 / bframes=3 / b_pyramid=2 / b_adapt=1 / b_bias=0 / direct=1 / weightb=1 / open_gop=0 / weightp=2 / keyint=250 / keyint_min=23 / scenecut=40 / intra_refresh=0 / rc_lookahead=40 / rc=2pass / mbtree=1 / bitrate=5460 / ratetol=1.0 / qcomp=0.60 / qpmin=0 / qpmax=69 / qpstep=4 / cplxblur=20.0 / qblur=0.5 / ip_ratio=1.40 / aq=1:1.00
Language : English
Default : Yes
Forced : No

Audio
ID : 2
Format : DTS
Format/Info : Digital Theater Systems
Mode : 16
Format settings, Endianness : Big
Codec ID : A_DTS
Duration : 1 h 52 min
Bit rate mode : Constant
Bit rate : 1 509 kb/s
Channel(s) : 2 channels
Channel positions : Front: L R
Sampling rate : 48.0 kHz
Frame rate : 93.750 FPS (512 spf)
Bit depth : 24 bits
Compression mode : Lossy
Stream size : 1.18 GiB (22%)
Language : English
Default : Yes
Forced : No

Text #1
ID : 3
Format : UTF-8
Codec ID : S_TEXT/UTF8
Codec ID/Info : UTF-8 Plain Text
Language : English
Default : No
Forced : No

Text #2
ID : 4
Format : UTF-8
Codec ID : S_TEXT/UTF8
Codec ID/Info : UTF-8 Plain Text
Title : SDH
Language : English
Default : No
Forced : No

Menu
00:00:00.000 : en:00:00:00.000
00:05:07.307 : en:00:05:07.307
00:08:48.737 : en:00:08:48.737
00:15:54.370 : en:00:15:54.370
00:21:42.760 : en:00:21:42.760
00:24:06.320 : en:00:24:06.320
00:27:37.781 : en:00:27:37.781
00:31:29.846 : en:00:31:29.846
00:37:10.770 : en:00:37:10.770
00:40:08.573 : en:00:40:08.573
00:44:09.146 : en:00:44:09.146
00:48:38.833 : en:00:48:38.833
00:52:00.284 : en:00:52:00.284
00:54:00.988 : en:00:54:00.988
00:58:43.353 : en:00:58:43.353
01:02:18.860 : en:01:02:18.860
01:06:51.216 : en:01:06:51.216
01:09:54.107 : en:01:09:54.107
01:13:25.776 : en:01:13:25.776
01:18:43.260 : en:01:18:43.260
01:20:47.259 : en:01:20:47.259
01:24:25.894 : en:01:24:25.894
01:28:34.851 : en:01:28:34.851
01:31:30.276 : en:01:31:30.276
01:38:19.310 : en:01:38:19.310
01:44:12.079 : en:01:44:12.079
01:48:23.580 : en:01:48:23.580
01:50:24.159 : en:01:50:24.159

General
Scarecrow.1973.1080p.BluRay.x264-SiNNERS\Scarecrow.1973.1080p.BluRay.x264-SiNNERS.mkv
Format : Matroska
Format version : Version 4 / Version 2
File size : 10.9 GiB
Duration : 1 h 52 min
Overall bit rate : 13.9 Mb/s
Encoded date : UTC 2017-10-30 06:18:41
Writing application : mkvmerge v6.8.0 ('Theme for Great Cities') 64bit built on Mar 2 2014 21:34:26
Writing library : libebml v1.3.0 + libmatroska v1.4.1

Video
ID : 1
Format : AVC
Format/Info : Advanced Video Codec
Format profile : High@L4.1
Format settings, CABAC : Yes
Format settings, ReFrames : 5 frames
Codec ID : V_MPEG4/ISO/AVC
Duration : 1 h 52 min
Bit rate : 12.4 Mb/s
Width : 1 920 pixels
Height : 800 pixels
Display aspect ratio : 2.40:1
Frame rate mode : Constant
Frame rate : 23.976 (24000/1001) FPS
Color space : YUV
Chroma subsampling : 4:2:0
Bit depth : 8 bits
Scan type : Progressive
Bits/(Pixel*Frame) : 0.338
Stream size : 9.53 GiB (87%)
Writing library : x264 core 152 r2851 ba24899
Encoding settings : cabac=1 / ref=5 / deblock=1:-3:-3 / analyse=0x3:0x113 / me=umh / subme=8 / psy=1 / psy_rd=1.00:0.00 / mixed_ref=1 / me_range=16 / chroma_me=1 / trellis=2 / 8x8dct=1 / cqm=0 / deadzone=21,11 / fast_pskip=0 / chroma_qp_offset=-2 / threads=18 / lookahead_threads=3 / sliced_threads=0 / nr=0 / decimate=1 / interlaced=0 / bluray_compat=0 / constrained_intra=0 / bframes=3 / b_pyramid=2 / b_adapt=1 / b_bias=0 / direct=1 / weightb=1 / open_gop=0 / weightp=2 / keyint=250 / keyint_min=23 / scenecut=40 / intra_refresh=0 / rc_lookahead=40 / rc=2pass / mbtree=1 / bitrate=12432 / ratetol=1.0 / qcomp=0.60 / qpmin=0 / qpmax=69 / qpstep=4 / cplxblur=20.0 / qblur=0.5 / ip_ratio=1.40 / aq=1:1.00
Language : English
Default : Yes
Forced : No

Audio
ID : 2
Format : DTS
Format/Info : Digital Theater Systems
Mode : 16
Format settings, Endianness : Big
Codec ID : A_DTS
Duration : 1 h 52 min
Bit rate mode : Constant
Bit rate : 1 509 kb/s
Channel(s) : 2 channels
Channel positions : Front: L R
Sampling rate : 48.0 kHz
Frame rate : 93.750 FPS (512 spf)
Bit depth : 24 bits
Compression mode : Lossy
Stream size : 1.18 GiB (11%)
Language : English
Default : Yes
Forced : No

Text #1
ID : 3
Format : UTF-8
Codec ID : S_TEXT/UTF8
Codec ID/Info : UTF-8 Plain Text
Language : English
Default : No
Forced : No

Text #2
ID : 4
Format : UTF-8
Codec ID : S_TEXT/UTF8
Codec ID/Info : UTF-8 Plain Text
Title : SDH
Language : English
Default : No
Forced : No

Menu
00:00:00.000 : en:00:00:00.000
00:05:07.307 : en:00:05:07.307
00:08:48.737 : en:00:08:48.737
00:15:54.370 : en:00:15:54.370
00:21:42.760 : en:00:21:42.760
00:24:06.320 : en:00:24:06.320
00:27:37.781 : en:00:27:37.781
00:31:29.846 : en:00:31:29.846
00:37:10.770 : en:00:37:10.770
00:40:08.573 : en:00:40:08.573
00:44:09.146 : en:00:44:09.146
00:48:38.833 : en:00:48:38.833
00:52:00.284 : en:00:52:00.284
00:54:00.988 : en:00:54:00.988
00:58:43.353 : en:00:58:43.353
01:02:18.860 : en:01:02:18.860
01:06:51.216 : en:01:06:51.216
01:09:54.107 : en:01:09:54.107
01:13:25.776 : en:01:13:25.776
01:18:43.260 : en:01:18:43.260
01:20:47.259 : en:01:20:47.259
01:24:25.894 : en:01:24:25.894
01:28:34.851 : en:01:28:34.851
01:31:30.276 : en:01:31:30.276
01:38:19.310 : en:01:38:19.310
01:44:12.079 : en:01:44:12.079
01:48:23.580 : en:01:48:23.580
01:50:24.159 : en:01:50:24.159


BDRip 720p Screenshots

Scarecrow (1973)

Scarecrow (1973)

Scarecrow (1973)


BDRip 1080p Screenshots

Scarecrow (1973)

Scarecrow (1973)

Scarecrow (1973)


Come Visit My Blog (•‿•)