Mahapurush / The Holy Man (1965)

Mahapurush / The Holy Man (1965)

Mahapurush / The Holy Man (1965)
DVDRip | MKV | AVC 704x576, ~ 1.9 Mbps | 1hr 07mn | 1.01 GB
Bengali: AC3, 2 ch, 192 kbps
Subtitles: English
Genre: Comedy
IMDB Rating: 7.3/10 (747 votes)


Director: Satyajit Ray
Writers: Rajshekhar 'Parashuram' Basu (story "Birinchi Baba"), Satyajit Ray (screenplay)
Stars: Charuprakash Ghosh, Rabi Ghosh, Prasad Mukherjee

A retired lawyer meets a holy man # Birinchi Baba (Charuprakash Ghosh) and his assistant (Robi Ghosh) # on his way back from a pilgrimage # and is totally taken in by his supernatural life. The holy man is on first name terms with Buddha and all the gods of the Hindu pantheon. What the world calls 'Cruci-fiction' he calls 'Cruci-fact' because he has seen it with his own eyes! He even starts giving orations to an audience of the rich and famous at the lawyer's residence. The gullible lawyer decides to get his entire family initiated into the guru's fold # including his unmarried younger daughter (Gitali Roy) who is being courted by a young man (Satindra Bhattacharya). His group of intelligent and rationalist friends (Somen Bose et al) decide to take matters in their own hands # and hatch a plot to expose the smooth-talking charlatan.




General
Unique ID : 220130779635547602091180954453084117462 (0xA59BA56171E3D0D08FB151BF086699D6)
Complete name : M:\SatyajitRay.Mahapurush.65.Dr\SatyajitRay.Mahapurush.65.Dr.mkv
Format : Matroska
Format version : Version 4 / Version 2
File size : 1 007 MiB
Duration : 1 h 7 min
Overall bit rate : 2 088 kb/s
Movie name : Release RSU75
Encoded date : UTC 2017-10-25 10:50:30
Writing application : mkvmerge v6.6.0 ('The Edge Of The In Between') built on Dec 1 2013 17:55:00
Writing library : libebml v1.3.0 + libmatroska v1.4.1

Video
ID : 1
Format : AVC
Format/Info : Advanced Video Codec
Format profile : High@L3
Format settings : CABAC / 4 Ref Frames
Format settings, CABAC : Yes
Format settings, RefFrames : 4 frames
Codec ID : V_MPEG4/ISO/AVC
Duration : 1 h 7 min
Bit rate : 1 900 kb/s
Width : 704 pixels
Height : 576 pixels
Display aspect ratio : 4:3
Frame rate mode : Constant
Frame rate : 25.000 FPS
Standard : PAL
Color space : YUV
Chroma subsampling : 4:2:0
Bit depth : 8 bits
Scan type : Progressive
Bits/(Pixel*Frame) : 0.187
Stream size : 894 MiB (89%)
Writing library : x264 core 144 r2533 c8a773e
Encoding settings : cabac=1 / ref=4 / deblock=1:0:0 / analyse=0x3:0x113 / me=umh / subme=8 / psy=1 / psy_rd=1.00:0.00 / mixed_ref=1 / me_range=24 / chroma_me=1 / trellis=1 / 8x8dct=1 / cqm=0 / deadzone=21,11 / fast_pskip=1 / chroma_qp_offset=-2 / threads=3 / lookahead_threads=1 / sliced_threads=0 / nr=0 / decimate=1 / interlaced=0 / bluray_compat=0 / constrained_intra=0 / bframes=3 / b_pyramid=0 / b_adapt=2 / b_bias=0 / direct=3 / weightb=1 / open_gop=0 / weightp=2 / keyint=250 / keyint_min=25 / scenecut=40 / intra_refresh=0 / rc_lookahead=40 / rc=abr / mbtree=1 / bitrate=1900 / ratetol=1.0 / qcomp=0.60 / qpmin=10 / qpmax=51 / qpstep=4 / ip_ratio=1.41 / aq=1:1.00
Language : English
Default : Yes
Forced : No

Audio
ID : 2
Format : AC-3
Format/Info : Audio Coding 3
Format settings, Endianness : Big
Codec ID : A_AC3
Duration : 1 h 7 min
Bit rate mode : Constant
Bit rate : 192 kb/s
Channel(s) : 2 channels
Channel positions : Front: L R
Sampling rate : 48.0 kHz
Frame rate : 31.250 FPS (1536 SPF)
Bit depth : 16 bits
Compression mode : Lossy
Delay relative to video : -40 ms
Stream size : 92.6 MiB (9%)
Language : English
Service kind : Complete Main
Default : Yes
Forced : No

Text
ID : 3
Format : VobSub
Muxing mode : zlib
Codec ID : S_VOBSUB
Codec ID/Info : Picture based subtitle format used on DVDs
Language : English
Default : Yes
Forced : No

Menu
00:00:00.000 : en:Chapter 01
00:03:26.320 : en:Chapter 02
00:11:24.520 : en:Chapter 03
00:17:22.960 : en:Chapter 04
00:29:41.120 : en:Chapter 05
00:36:13.720 : en:Chapter 06
00:39:52.240 : en:Chapter 07
00:45:07.720 : en:Chapter 08
00:49:47.560 : en:Chapter 09
00:54:41.600 : en:Chapter 10
00:57:51.480 : en:Chapter 11
01:01:56.800 : en:Chapter 12




Screenshots (click to enlarge to original size):

Mahapurush / The Holy Man (1965)

Mahapurush / The Holy Man (1965)

Mahapurush / The Holy Man (1965)


Mahapurush / The Holy Man (1965)




–––––––––––––––––––––––––––––––––––––––-
>>> "DVDRip" <<< OR >>> "Satyajit Ray" <<<
–––––––––––––––––––––––––––––––––––––––-
>>> Visit Blog RSU75 Here <<<
–––––––––––––––––––––––––––––––––––––––-