Salo o le 120 giornate di Sodoma / Salo, or the 120 Days of Sodom (1975) [Criterion Collection]

Salo o le 120 giornate di Sodoma / Salo, or the 120 Days of Sodom (1975) [Criterion Collection]

Salo o le 120 giornate di Sodoma / Salo, or the 120 Days of Sodom (1975) [Criterion Collection, Spine #17]
BDRip | MKV | AVC 1280x692, ~ 3.0 Mbps | 1hr 56mn | 2.79 GB
Italian \ English: AC3, 1 ch, 192 kbps
Subtitles: English
Genre: Drama, War
IMDB Rating: 6.0/10 (42.003 votes)


Director: Pier Paolo Pasolini
Writers: Sergio Citti, Pier Paolo Pasolini
Stars: Paolo Bonacelli, Laura Betti, Giorgio Cataldi

The notorious final film from Pier Paolo Pasolini, Salò, or The 120 Days of Sodom has been called nauseating, shocking, depraved, pornographic . . . It’s also a masterpiece. The controversial poet, novelist, and filmmaker’s transposition of the Marquis de Sade’s eighteenth-century opus of torture and degradation to Fascist Italy in 1944 remains one of the most passionately debated films of all time, a thought-provoking inquiry into the political, social, and sexual dynamics that define the world we live in.




General
Unique ID : 189725515352213100900775725059304723457 (0x8EBBCE1C8C5E7D2D90F4D48F024A1401)
Complete name : l:\SaloOr120DaysOfSodom.75.7p\SaloOr120DaysOfSodom.75.7p.mkv
Format : Matroska
Format version : Version 4 / Version 2
File size : 2.79 GiB
Duration : 1 h 56 min
Overall bit rate : 3 421 kb/s
Movie name : Release RSU75
Encoded date : UTC 2017-07-07 06:27:49
Writing application : mkvmerge v6.6.0 ('The Edge Of The In Between') built on Dec 1 2013 17:55:00
Writing library : libebml v1.3.0 + libmatroska v1.4.1

Video
ID : 1
Format : AVC
Format/Info : Advanced Video Codec
Format profile : High@L3.1
Format settings, CABAC : Yes
Format settings, ReFrames : 4 frames
Codec ID : V_MPEG4/ISO/AVC
Duration : 1 h 56 min
Bit rate : 3 000 kb/s
Width : 1 280 pixels
Height : 692 pixels
Display aspect ratio : 1.85:1
Frame rate mode : Constant
Frame rate : 23.976 (23976/1000) FPS
Color space : YUV
Chroma subsampling : 4:2:0
Bit depth : 8 bits
Scan type : Progressive
Bits/(Pixel*Frame) : 0.141
Stream size : 2.42 GiB (87%)
Writing library : x264 core 144 r2533 c8a773e
Encoding settings : cabac=1 / ref=4 / deblock=1:0:0 / analyse=0x3:0x113 / me=umh / subme=8 / psy=1 / psy_rd=1.00:0.00 / mixed_ref=1 / me_range=24 / chroma_me=1 / trellis=1 / 8x8dct=1 / cqm=0 / deadzone=21,11 / fast_pskip=1 / chroma_qp_offset=-2 / threads=3 / lookahead_threads=1 / sliced_threads=0 / nr=0 / decimate=1 / interlaced=0 / bluray_compat=0 / constrained_intra=0 / bframes=3 / b_pyramid=0 / b_adapt=2 / b_bias=0 / direct=3 / weightb=1 / open_gop=0 / weightp=2 / keyint=250 / keyint_min=25 / scenecut=40 / intra_refresh=0 / rc_lookahead=40 / rc=abr / mbtree=1 / bitrate=3000 / ratetol=1.0 / qcomp=0.60 / qpmin=10 / qpmax=51 / qpstep=4 / ip_ratio=1.41 / aq=1:1.00
Language : English
Default : Yes
Forced : No

Audio #1
ID : 2
Format : AC-3
Format/Info : Audio Coding 3
Mode extension : CM (complete main)
Format settings, Endianness : Big
Codec ID : A_AC3
Duration : 1 h 56 min
Bit rate mode : Constant
Bit rate : 192 kb/s
Channel(s) : 1 channel
Channel positions : Front: C
Sampling rate : 48.0 kHz
Frame rate : 31.250 FPS (1536 spf)
Bit depth : 16 bits
Compression mode : Lossy
Delay relative to video : -5 ms
Stream size : 160 MiB (6%)
Language : Italian
Default : Yes
Forced : No

Audio #2
ID : 3
Format : AC-3
Format/Info : Audio Coding 3
Mode extension : CM (complete main)
Format settings, Endianness : Big
Codec ID : A_AC3
Duration : 1 h 56 min
Bit rate mode : Constant
Bit rate : 192 kb/s
Channel(s) : 1 channel
Channel positions : Front: C
Sampling rate : 48.0 kHz
Frame rate : 31.250 FPS (1536 spf)
Bit depth : 16 bits
Compression mode : Lossy
Delay relative to video : -42 ms
Stream size : 160 MiB (6%)
Language : English
Default : No
Forced : No

Text #1
ID : 4
Format : PGS
Muxing mode : zlib
Codec ID : S_HDMV/PGS
Codec ID/Info : Picture based subtitle format used on BDs/HD-DVDs
Language : English
Default : Yes
Forced : No

Text #2
ID : 5
Format : PGS
Muxing mode : zlib
Codec ID : S_HDMV/PGS
Codec ID/Info : Picture based subtitle format used on BDs/HD-DVDs
Language : English
Default : No
Forced : No




Screenshots (click to enlarge to original size):

Salo o le 120 giornate di Sodoma / Salo, or the 120 Days of Sodom (1975) [Criterion Collection]

Salo o le 120 giornate di Sodoma / Salo, or the 120 Days of Sodom (1975) [Criterion Collection]

Salo o le 120 giornate di Sodoma / Salo, or the 120 Days of Sodom (1975) [Criterion Collection]

Salo o le 120 giornate di Sodoma / Salo, or the 120 Days of Sodom (1975) [Criterion Collection]

Salo o le 120 giornate di Sodoma / Salo, or the 120 Days of Sodom (1975) [Criterion Collection]




–––––––––––––––––––––––––––––––––––––––-
>>> Other BDRip <<< OR >>> "Criterion Collection" <<< OR >>> "Pier Paolo Pasolini" <<<
–––––––––––––––––––––––––––––––––––––––-
>>> Visit Blog RSU75 Here <<<
–––––––––––––––––––––––––––––––––––––––-