Sällskapsresan eller Finns det svenskt kaffe på grisfesten (1980)

Sällskapsresan eller Finns det svenskt kaffe på grisfesten (1980)

Sällskapsresan eller Finns det svenskt kaffe på grisfesten (1980)
BDRip | MKV | 1280x720 | Swedish / English | H264 @ 4107 kbps | DTS @ 1509 kbps | 1 h 47 min | 4.37 GiB
BDRip | MKV | 1920x1080 | Swedish / English | H264 @ 8492 kbps | DTS @ 1509 kbps | 1 h 47 min | 7.65 GiB
Subtitles: English
Genre: Comedy

Stig-Helmer and Ole Bramserud on a trip to the Canary Islands for Christmas.

3da20bbf205d990ded7bc213e8d8e5ac.mkv (4.4 GB)



General
Unique ID : 197771774123012822976192145090432808483 (0x94C9754C3084C64BA4E44A4A9B953623)
Complete name : ./3da20bbf205d990ded7bc213e8d8e5ac.mkv
Format : Matroska
Format version : Version 4 / Version 2
File size : 4.37 GiB
Duration : 1 h 47 min
Overall bit rate : 5 842 kb/s
Encoded date : UTC 2020-01-05 13:18:06
Writing application : mkvmerge v8.3.0 ('Over the Horizon') 64bit
Writing library : libebml v1.3.1 + libmatroska v1.4.2

Video
ID : 1
Format : AVC
Format/Info : Advanced Video Codec
Format profile : High@L4.1
Format settings : CABAC / 5 Ref Frames
Format settings, CABAC : Yes
Format settings, RefFrames : 5 frames
Codec ID : V_MPEG4/ISO/AVC
Duration : 1 h 47 min
Bit rate : 4 107 kb/s
Width : 1 280 pixels
Height : 720 pixels
Display aspect ratio : 16:9
Frame rate mode : Constant
Frame rate : 24.000 FPS
Color space : YUV
Chroma subsampling : 4:2:0
Bit depth : 8 bits
Scan type : Progressive
Bits/(Pixel*Frame) : 0.186
Stream size : 3.07 GiB (70%)
Writing library : x264 core 157 r2969 d4099dd
Encoding settings : cabac=1 / ref=5 / deblock=1:-3:-3 / analyse=0x3:0x133 / me=umh / subme=9 / psy=1 / psy_rd=1.00:0.00 / mixed_ref=1 / me_range=16 / chroma_me=1 / trellis=2 / 8x8dct=1 / cqm=0 / deadzone=21,11 / fast_pskip=0 / chroma_qp_offset=-2 / threads=18 / lookahead_threads=1 / sliced_threads=0 / nr=0 / decimate=1 / interlaced=0 / bluray_compat=0 / constrained_intra=0 / bframes=3 / b_pyramid=2 / b_adapt=1 / b_bias=0 / direct=3 / weightb=1 / open_gop=0 / weightp=2 / keyint=240 / keyint_min=24 / scenecut=40 / intra_refresh=0 / rc_lookahead=50 / rc=2pass / mbtree=1 / bitrate=4107 / ratetol=1.0 / qcomp=0.60 / qpmin=0 / qpmax=69 / qpstep=4 / cplxblur=20.0 / qblur=0.5 / ip_ratio=1.40 / aq=1:1.00
Language : English
Default : Yes
Forced : No

Audio #1
ID : 2
Format : DTS
Format/Info : Digital Theater Systems
Mode : 16
Format settings, Endianness : Big
Codec ID : A_DTS
Duration : 1 h 47 min
Bit rate mode : Constant
Bit rate : 1 509 kb/s
Channel(s) : 2 channels
Channel positions : Front: L R
Sampling rate : 48.0 kHz
Frame rate : 93.750 FPS (512 SPF)
Bit depth : 24 bits
Compression mode : Lossy
Stream size : 1.13 GiB (26%)
Language : Swedish
Default : Yes
Forced : No

Audio #2
ID : 3
Format : AC-3
Format/Info : Audio Coding 3
Format settings, Endianness : Big
Codec ID : A_AC3
Duration : 1 h 47 min
Bit rate mode : Constant
Bit rate : 224 kb/s
Channel(s) : 2 channels
Channel positions : Front: L R
Sampling rate : 48.0 kHz
Frame rate : 31.250 FPS (1536 SPF)
Bit depth : 16 bits
Compression mode : Lossy
Stream size : 172 MiB (4%)
Language : English
Service kind : Complete Main
Default : No
Forced : No

Text
ID : 4
Format : UTF-8
Codec ID : S_TEXT/UTF8
Codec ID/Info : UTF-8 Plain Text
Duration : 1 h 42 min
Bit rate : 43 b/s
Count of elements : 745
Stream size : 32.5 KiB (0%)
Title : English
Language : English
Default : Yes
Forced : Yes

Menu
00:00:00.000 : en:00:00:00.000
00:13:21.000 : en:00:13:21.000
00:22:28.000 : en:00:22:28.000
00:31:04.500 : en:00:31:04.500
00:43:16.500 : en:00:43:16.500
00:50:47.000 : en:00:50:47.000
01:01:30.500 : en:01:01:30.500
01:11:57.500 : en:01:11:57.500
01:22:00.000 : en:01:22:00.000
01:35:10.500 : en:01:35:10.500





Sällskapsresan eller Finns det svenskt kaffe på grisfesten (1980)


Sällskapsresan eller Finns det svenskt kaffe på grisfesten (1980)


Sällskapsresan eller Finns det svenskt kaffe på grisfesten (1980)


Sällskapsresan eller Finns det svenskt kaffe på grisfesten (1980)


Sällskapsresan eller Finns det svenskt kaffe på grisfesten (1980)